  0
SECTION
  2
HEADER
  9
$ACADVER
  1
AC1021
  9
$DWGCODEPAGE
  3
ANSI_1252
  9
$EXTMAX
 10
600.0
 20
424.2857142857
 30
0.0
  9
$EXTMIN
 10
0.0
 20
0.0
 30
0.0
  9
$LIMMIN
 10
0.0
 20
0.0
  9
$LIMMAX
 10
600.0
 20
424.2857142857
  9
$VIEWCTR
 10
300.0
 20
212.1428571429
  9
$VIEWSIZE
 40
424.2857142857
  9
$CLAYER
  8
0
  9
$LTSCALE
 40
33.0
  9
$CELTYPE
  6
BYLAYER
  9
$DIMSCALE
 40
1.0
  9
$DIMASZ
 40
5.0
  9
$DIMEXO
 40
3.75
  9
$DIMDLI
 40
22.8
  9
$DIMEXE
 40
10.8
  9
$DIMCEN
 40
5.4
  9
$DIMLFAC
 40
1.0
  9
$DIMBLK
  1
_FILLED
  9
$DIMTXT
 40
3.5714285714
  9
$DIMTOL
 70
1
  9
$DIMLIM
 70
0
  9
$DIMTFAC
 40
1.0
  9
$DIMTP
 40
0.05
  9
$DIMTM
 40
0.05
  9
$PDMODE
 70
3
  9
$PDSIZE
 40
0.3125
  9
$HANDSEED
  5
508
  9
$TILEMODE
 70
1
  9
$MEASUREMENT
 70
1
  9
$INSUNITS
 70
4
  0
ENDSEC
  0
SECTION
  2
CLASSES
  0
CLASS
  1
ACDBDICTIONARYWDFLT
  2
AcDbDictionaryWithDefault
  3
AutoCAD 2000
 90
0
 91
1
280
0
281
0
  0
CLASS
  1
ACDBPLACEHOLDER
  2
AcDbPlaceHolder
  3
AutoCAD 2000
 90
0
 91
1
280
0
281
0
  0
CLASS
  1
LAYOUT
  2
AcDbLayout
  3
AutoCAD 2000
 90
0
 91
0
280
0
281
0
  0
ENDSEC
  0
SECTION
  2
TABLES
  0
TABLE
  2
VPORT
  5
8
100
AcDbSymbolTable
 70
2
  0
VPORT
  5
1F4
100
AcDbSymbolTableRecord
100
AcDbViewportTableRecord
  2
*ACTIVE
 70
0
 10
0.0
 20
0.0
 11
1.0
 21
1.0
 12
300.0
 22
212.1428571429
 13
0.0
 23
0.0
 14
1.0
 24
1.0
 15
0.0
 25
0.0
 16
0.0
 26
0.0
 36
1.0
 17
0.0
 27
0.0
 37
0.0
 40
424.2857142857
 41
1.4141414141
 42
50.0
 43
0.0
 44
0.0
 50
0.0
 51
0.0
 71
0
 72
100
 73
1
 74
1
 75
0
 76
0
 77
0
 78
0
  0
ENDTAB
  0
TABLE
  2
LTYPE
  5
5
100
AcDbSymbolTable
 70
6
  0
LTYPE
  5
14
100
AcDbSymbolTableRecord
100
AcDbLinetypeTableRecord
  2
BYBLOCK
 70
0
  3

 72
65
 73
0
 40
0.0
  0
LTYPE
  5
15
100
AcDbSymbolTableRecord
100
AcDbLinetypeTableRecord
  2
BYLAYER
 70
0
  3

 72
65
 73
0
 40
0.0
  0
LTYPE
  5
16
100
AcDbSymbolTableRecord
100
AcDbLinetypeTableRecord
  2
CONTINUOUS
 70
64
  3
Solid line
 72
65
 73
0
 40
0.0
  0
LTYPE
  5
1F5
100
AcDbSymbolTableRecord
100
AcDbLinetypeTableRecord
  2
CENTER
 70
64
  3
____ _ ____ _ ____ _ ____ _ ____ _ ____ _ ____
 72
65
 73
4
 40
0.6
 49
0.375
 74
0
 49
-0.075
 74
0
 49
0.075
 74
0
 49
-0.075
 74
0
  0
LTYPE
  5
1F6
100
AcDbSymbolTableRecord
100
AcDbLinetypeTableRecord
  2
HIDDEN
 70
64
  3
- - - - - - - - - - - - - - - - - - - -
 72
65
 73
2
 40
0.2
 49
0.1
 74
0
 49
-0.1
 74
0
  0
LTYPE
  5
1F7
100
AcDbSymbolTableRecord
100
AcDbLinetypeTableRecord
  2
PHANTOM
 70
64
  3
_____ _ _ _____ _ _ _____ _ _ _____
 72
65
 73
6
 40
0.8
 49
0.45
 74
0
 49
-0.05
 74
0
 49
0.1
 74
0
 49
-0.05
 74
0
 49
0.1
 74
0
 49
-0.05
 74
0
  0
LTYPE
  5
1F8
100
AcDbSymbolTableRecord
100
AcDbLinetypeTableRecord
  2
DOT
 70
64
  3
. . . . . . . . . . . . . . . . . . . .
 72
65
 73
2
 40
0.2
 49
0.1
 74
0
 49
-0.1
 74
0
  0
LTYPE
  5
1F9
100
AcDbSymbolTableRecord
100
AcDbLinetypeTableRecord
  2
DASHED
 70
64
  3
- - - - - - - - - - - - - - - - - - - -
 72
65
 73
2
 40
0.2
 49
0.1
 74
0
 49
-0.1
 74
0
  0
ENDTAB
  0
TABLE
  2
LAYER
  5
2
100
AcDbSymbolTable
 70
36
  0
LAYER
  5
10
100
AcDbSymbolTableRecord
100
AcDbLayerTableRecord
  2
0
 70
0
 62
7
  6
CONTINUOUS
370
-3
390
F
  0
LAYER
  5
1FA
100
AcDbSymbolTableRecord
100
AcDbLayerTableRecord
  2
DEFAULT_1
 70
0
 62
7
  6
CENTER
370
-3
390
F
  0
LAYER
  5
1FB
100
AcDbSymbolTableRecord
100
AcDbLayerTableRecord
  2
DEFAULT_2
 70
0
 62
8
  6
HIDDEN
370
-3
390
F
  0
LAYER
  5
1FC
100
AcDbSymbolTableRecord
100
AcDbLayerTableRecord
  2
DEFAULT_3
 70
0
 62
7
  6
PHANTOM
370
-3
390
F
  0
LAYER
  5
1FD
100
AcDbSymbolTableRecord
100
AcDbLayerTableRecord
  2
BEZUGSACHSEN
 70
0
 62
7
  6
CONTINUOUS
370
-3
390
F
  0
LAYER
  5
1FE
100
AcDbSymbolTableRecord
100
AcDbLayerTableRecord
  2
BEZUGSEBENEN
 70
0
 62
7
  6
CONTINUOUS
370
-3
390
F
  0
LAYER
  5
1FF
100
AcDbSymbolTableRecord
100
AcDbLayerTableRecord
  2
BG_STARTBEZUEGE
 70
0
 62
7
  6
CONTINUOUS
370
-3
390
F
  0
LAYER
  5
200
100
AcDbSymbolTableRecord
100
AcDbLayerTableRecord
  2
BLATT1_AUSBLENDEN
 70
0
 62
7
  6
CONTINUOUS
370
-3
390
F
  0
LAYER
  5
201
100
AcDbSymbolTableRecord
100
AcDbLayerTableRecord
  2
BLATT1_LINKS_AUSBLENDEN
 70
0
 62
7
  6
CONTINUOUS
370
-3
390
F
  0
LAYER
  5
202
100
AcDbSymbolTableRecord
100
AcDbLayerTableRecord
  2
BOHRUNGEN
 70
0
 62
7
  6
CONTINUOUS
370
-3
390
F
  0
LAYER
  5
203
100
AcDbSymbolTableRecord
100
AcDbLayerTableRecord
  2
FASEN
 70
0
 62
7
  6
CONTINUOUS
370
-3
390
F
  0
LAYER
  5
204
100
AcDbSymbolTableRecord
100
AcDbLayerTableRecord
  2
FLAECHEN
 70
0
 62
7
  6
CONTINUOUS
370
-3
390
F
  0
LAYER
  5
205
100
AcDbSymbolTableRecord
100
AcDbLayerTableRecord
  2
GEWINDE
 70
0
 62
7
  6
CONTINUOUS
370
-3
390
F
  0
LAYER
  5
206
100
AcDbSymbolTableRecord
100
AcDbLayerTableRecord
  2
HILFEN
 70
0
 62
7
  6
CONTINUOUS
370
-3
390
F
  0
LAYER
  5
207
100
AcDbSymbolTableRecord
100
AcDbLayerTableRecord
  2
KOSMETIKAS_BLATT2_AUSBLENDEN
 70
0
 62
7
  6
CONTINUOUS
370
-3
390
F
  0
LAYER
  5
208
100
AcDbSymbolTableRecord
100
AcDbLayerTableRecord
  2
KOSMETIKA_BLATT1_LINKS
 70
0
 62
7
  6
CONTINUOUS
370
-3
390
F
  0
LAYER
  5
209
100
AcDbSymbolTableRecord
100
AcDbLayerTableRecord
  2
KOSM_3D
 70
0
 62
7
  6
CONTINUOUS
370
-3
390
F
  0
LAYER
  5
20A
100
AcDbSymbolTableRecord
100
AcDbLayerTableRecord
  2
KOSM_NEW_VIEW10
 70
0
 62
7
  6
CONTINUOUS
370
-3
390
F
  0
LAYER
  5
20B
100
AcDbSymbolTableRecord
100
AcDbLayerTableRecord
  2
KURVEN
 70
0
 62
7
  6
CONTINUOUS
370
-3
390
F
  0
LAYER
  5
20C
100
AcDbSymbolTableRecord
100
AcDbLayerTableRecord
  2
LAY0001
 70
0
 62
7
  6
CONTINUOUS
370
-3
390
F
  0
LAYER
  5
20D
100
AcDbSymbolTableRecord
100
AcDbLayerTableRecord
  2
MOTOR
 70
0
 62
7
  6
CONTINUOUS
370
-3
390
F
  0
LAYER
  5
20E
100
AcDbSymbolTableRecord
100
AcDbLayerTableRecord
  2
PLAZIERUNG
 70
0
 62
7
  6
CONTINUOUS
370
-3
390
F
  0
LAYER
  5
20F
100
AcDbSymbolTableRecord
100
AcDbLayerTableRecord
  2
RUNDUNGEN
 70
0
 62
7
  6
CONTINUOUS
370
-3
390
F
  0
LAYER
  5
210
100
AcDbSymbolTableRecord
100
AcDbLayerTableRecord
  2
STOERK
 70
0
 62
7
  6
CONTINUOUS
370
-3
390
F
  0
LAYER
  5
211
100
AcDbSymbolTableRecord
100
AcDbLayerTableRecord
  2
TEIL_STARTBEZUEGE
 70
0
 62
7
  6
CONTINUOUS
370
-3
390
F
  0
LAYER
  5
212
100
AcDbSymbolTableRecord
100
AcDbLayerTableRecord
  2
XSEC_DATUMS
 70
0
 62
7
  6
CONTINUOUS
370
-3
390
F
  0
LAYER
  5
213
100
AcDbSymbolTableRecord
100
AcDbLayerTableRecord
  2
ZEICHNUNGSBEMASSUNGEN
 70
0
 62
7
  6
CONTINUOUS
370
-3
390
F
  0
LAYER
  5
214
100
AcDbSymbolTableRecord
100
AcDbLayerTableRecord
  2
_2D_DELETED_OBJS
 70
0
 62
7
  6
CONTINUOUS
370
-3
390
F
  0
LAYER
  5
215
100
AcDbSymbolTableRecord
100
AcDbLayerTableRecord
  2
_BLACK_HOLE
 70
0
 62
7
  6
CONTINUOUS
370
-3
390
F
  0
ENDTAB
  0
TABLE
  2
STYLE
  5
3
100
AcDbSymbolTable
 70
1
  0
STYLE
  5
11
100
AcDbSymbolTableRecord
100
AcDbTextStyleTableRecord
  2
STANDARD
 70
0
 40
0.0
 41
0.7
 50
0.0
 71
0
 42
0.2
  3
txt
  4

  0
STYLE
  5
216
100
AcDbSymbolTableRecord
100
AcDbTextStyleTableRecord
  2
TEXTSTYLE_1
 70
0
 40
0.0
 41
0.8
 50
0.0
 71
0
 42
0.2
  3
gdt
  4

  0
STYLE
  5
217
100
AcDbSymbolTableRecord
100
AcDbTextStyleTableRecord
  2
TEXTSTYLE_2
 70
0
 40
0.0
 41
0.7
 50
0.0
 71
0
 42
0.2
  3
gdt
  4

  0
ENDTAB
  0
TABLE
  2
VIEW
  5
6
100
AcDbSymbolTable
 70
0
  0
ENDTAB
  0
TABLE
  2
UCS
  5
7
100
AcDbSymbolTable
 70
0
  0
ENDTAB
  0
TABLE
  2
APPID
  5
9
100
AcDbSymbolTable
 70
1
  0
APPID
  5
218
100
AcDbSymbolTableRecord
100
AcDbRegAppTableRecord
  2
ACAD
 70
0
  0
ENDTAB
  0
TABLE
  2
BLOCK_RECORD
  5
1
100
AcDbSymbolTable
 70
0
  0
BLOCK_RECORD
  5
219
100
AcDbSymbolTableRecord
100
AcDbBlockTableRecord
  2
*Model_Space
  0
BLOCK_RECORD
  5
21A
100
AcDbSymbolTableRecord
100
AcDbBlockTableRecord
  2
*Paper_Space
  0
BLOCK_RECORD
  5
21B
100
AcDbSymbolTableRecord
100
AcDbBlockTableRecord
  2
_FILLED
  0
BLOCK_RECORD
  5
21C
100
AcDbSymbolTableRecord
100
AcDbBlockTableRecord
  2
_NONE
  0
BLOCK_RECORD
  5
21D
100
AcDbSymbolTableRecord
100
AcDbBlockTableRecord
  2
*D0
  0
BLOCK_RECORD
  5
21E
100
AcDbSymbolTableRecord
100
AcDbBlockTableRecord
  2
*D1
  0
BLOCK_RECORD
  5
21F
100
AcDbSymbolTableRecord
100
AcDbBlockTableRecord
  2
*D2
  0
BLOCK_RECORD
  5
220
100
AcDbSymbolTableRecord
100
AcDbBlockTableRecord
  2
*D3
  0
BLOCK_RECORD
  5
221
100
AcDbSymbolTableRecord
100
AcDbBlockTableRecord
  2
*D4
  0
BLOCK_RECORD
  5
222
100
AcDbSymbolTableRecord
100
AcDbBlockTableRecord
  2
*D5
  0
BLOCK_RECORD
  5
223
100
AcDbSymbolTableRecord
100
AcDbBlockTableRecord
  2
*D6
  0
BLOCK_RECORD
  5
224
100
AcDbSymbolTableRecord
100
AcDbBlockTableRecord
  2
*D7
  0
BLOCK_RECORD
  5
225
100
AcDbSymbolTableRecord
100
AcDbBlockTableRecord
  2
*D8
  0
BLOCK_RECORD
  5
226
100
AcDbSymbolTableRecord
100
AcDbBlockTableRecord
  2
*D9
  0
BLOCK_RECORD
  5
227
100
AcDbSymbolTableRecord
100
AcDbBlockTableRecord
  2
*D10
  0
BLOCK_RECORD
  5
228
100
AcDbSymbolTableRecord
100
AcDbBlockTableRecord
  2
*D11
  0
BLOCK_RECORD
  5
229
100
AcDbSymbolTableRecord
100
AcDbBlockTableRecord
  2
*D12
  0
BLOCK_RECORD
  5
22A
100
AcDbSymbolTableRecord
100
AcDbBlockTableRecord
  2
*D13
  0
BLOCK_RECORD
  5
22B
100
AcDbSymbolTableRecord
100
AcDbBlockTableRecord
  2
*D14
  0
BLOCK_RECORD
  5
22C
100
AcDbSymbolTableRecord
100
AcDbBlockTableRecord
  2
*D15
  0
BLOCK_RECORD
  5
22D
100
AcDbSymbolTableRecord
100
AcDbBlockTableRecord
  2
*D16
  0
BLOCK_RECORD
  5
22E
100
AcDbSymbolTableRecord
100
AcDbBlockTableRecord
  2
*D17
  0
BLOCK_RECORD
  5
22F
100
AcDbSymbolTableRecord
100
AcDbBlockTableRecord
  2
*D18
  0
BLOCK_RECORD
  5
230
100
AcDbSymbolTableRecord
100
AcDbBlockTableRecord
  2
*D19
  0
BLOCK_RECORD
  5
231
100
AcDbSymbolTableRecord
100
AcDbBlockTableRecord
  2
*D20
  0
BLOCK_RECORD
  5
232
100
AcDbSymbolTableRecord
100
AcDbBlockTableRecord
  2
*D21
  0
BLOCK_RECORD
  5
233
100
AcDbSymbolTableRecord
100
AcDbBlockTableRecord
  2
*D22
  0
BLOCK_RECORD
  5
234
100
AcDbSymbolTableRecord
100
AcDbBlockTableRecord
  2
*D23
  0
BLOCK_RECORD
  5
235
100
AcDbSymbolTableRecord
100
AcDbBlockTableRecord
  2
*D24
  0
BLOCK_RECORD
  5
236
100
AcDbSymbolTableRecord
100
AcDbBlockTableRecord
  2
*D25
  0
BLOCK_RECORD
  5
237
100
AcDbSymbolTableRecord
100
AcDbBlockTableRecord
  2
*D26
  0
BLOCK_RECORD
  5
238
100
AcDbSymbolTableRecord
100
AcDbBlockTableRecord
  2
*D27
  0
BLOCK_RECORD
  5
239
100
AcDbSymbolTableRecord
100
AcDbBlockTableRecord
  2
*D28
  0
BLOCK_RECORD
  5
23A
100
AcDbSymbolTableRecord
100
AcDbBlockTableRecord
  2
SYMBOL_146_BL6
  0
BLOCK_RECORD
  5
23B
100
AcDbSymbolTableRecord
100
AcDbBlockTableRecord
  2
SYMBOL_163_BL5
  0
BLOCK_RECORD
  5
23C
100
AcDbSymbolTableRecord
100
AcDbBlockTableRecord
  2
SYMBOL_104_BL4
  0
BLOCK_RECORD
  5
23D
100
AcDbSymbolTableRecord
100
AcDbBlockTableRecord
  2
SYMBOL_179_BL3
  0
BLOCK_RECORD
  5
23E
100
AcDbSymbolTableRecord
100
AcDbBlockTableRecord
  2
SYMBOL_115_BL2
  0
BLOCK_RECORD
  5
23F
100
AcDbSymbolTableRecord
100
AcDbBlockTableRecord
  2
SYMBOL_143_BL1
  0
BLOCK_RECORD
  5
240
100
AcDbSymbolTableRecord
100
AcDbBlockTableRecord
  2
SYMBOL_152_BL0
  0
ENDTAB
  0
TABLE
  2
DIMSTYLE
  5
A
100
AcDbSymbolTable
 70
1
100
AcDbDimStyleTable
 71
0
  0
DIMSTYLE
105
241
100
AcDbSymbolTableRecord
100
AcDbDimStyleTableRecord
  2
STANDARD
 70
0
  3

  4

 40
1.0
 41
5.0
 42
0.0625
 43
0.38
 44
0.18
 45
0.0
 46
0.0
 47
0.05
 48
0.05
140
3.5714285714
141
0.09
142
0.0
143
25.4
144
1.0
145
0.0
146
1.0
147
0.09
 71
1.0
 72
0.0
 73
0
 74
0
 75
0
 76
0
 77
1
 78
8
170
0
171
2
172
0
173
0
174
0
175
0
176
0
177
0
178
5
270
2
271
2
272
2
273
2
274
2
275
0
280
0
281
0
282
0
283
1
284
8
285
0
286
0
287
3
288
0
340
11
341
21B
342
21B
343
21B
344
21B
  0
DIMSTYLE
105
242
100
AcDbSymbolTableRecord
100
AcDbDimStyleTableRecord
  2
DIMSTYLE_1
 70
0
  3

  4

 40
1.0
 41
5.0
 42
0.0625
 43
0.38
 44
0.18
 45
0.0
 46
0.0
 47
0.3
 48
0.3
140
3.5714285714
141
0.09
142
0.0
143
25.4
144
1.0
145
0.0
146
1.0
147
0.09
 71
0.0
 72
0.0
 73
0
 74
0
 75
0
 76
0
 77
1
 78
8
170
0
171
2
172
0
173
0
174
0
175
0
176
0
177
0
178
5
270
2
271
2
272
2
273
2
274
2
275
0
280
0
281
0
282
0
283
1
284
8
285
0
286
0
287
3
288
0
340
11
341
21B
342
21B
343
21B
344
21B
  0
DIMSTYLE
105
243
100
AcDbSymbolTableRecord
100
AcDbDimStyleTableRecord
  2
DIMSTYLE_2
 70
0
  3

  4

 40
1.0
 41
5.0
 42
0.0625
 43
0.38
 44
0.18
 45
0.0
 46
0.0
 47
0.2
 48
0.2
140
3.5714285714
141
0.09
142
0.0
143
25.4
144
1.0
145
0.0
146
1.0
147
0.09
 71
0.0
 72
0.0
 73
0
 74
0
 75
0
 76
0
 77
1
 78
8
170
0
171
2
172
0
173
0
174
0
175
0
176
0
177
0
178
5
270
2
271
2
272
2
273
2
274
2
275
0
280
0
281
0
282
0
283
1
284
8
285
0
286
0
287
3
288
0
340
11
341
21B
342
21B
343
21B
344
21B
  0
DIMSTYLE
105
244
100
AcDbSymbolTableRecord
100
AcDbDimStyleTableRecord
  2
DIMSTYLE_3
 70
0
  3

  4

 40
1.0
 41
5.0
 42
0.0625
 43
0.38
 44
0.18
 45
0.0
 46
0.0
 47
0.5
 48
0.5
140
3.5714285714
141
0.09
142
0.0
143
25.4
144
1.0
145
0.0
146
1.0
147
0.09
 71
0.0
 72
0.0
 73
0
 74
0
 75
0
 76
0
 77
1
 78
8
170
0
171
2
172
0
173
0
174
0
175
0
176
0
177
0
178
5
270
2
271
2
272
2
273
2
274
2
275
0
280
0
281
0
282
0
283
1
284
8
285
0
286
0
287
3
288
0
340
11
341
21B
342
21B
343
21B
344
21B
  0
DIMSTYLE
105
245
100
AcDbSymbolTableRecord
100
AcDbDimStyleTableRecord
  2
DIMSTYLE_4
 70
0
  3

  4

 40
1.0
 41
5.0
 42
0.0625
 43
0.38
 44
0.18
 45
0.0
 46
0.0
 47
0.1
 48
0.1
140
3.5714285714
141
0.09
142
0.0
143
25.4
144
1.0
145
0.0
146
1.0
147
0.09
 71
0.0
 72
0.0
 73
0
 74
0
 75
0
 76
0
 77
1
 78
8
170
0
171
2
172
0
173
0
174
0
175
0
176
0
177
0
178
5
270
2
271
2
272
2
273
2
274
2
275
0
280
0
281
0
282
0
283
1
284
8
285
0
286
0
287
3
288
0
340
11
341
21B
342
21B
343
21B
344
21B
  0
DIMSTYLE
105
246
100
AcDbSymbolTableRecord
100
AcDbDimStyleTableRecord
  2
DIMSTYLE_5
 70
0
  3

  4

 40
1.0
 41
5.0
 42
0.0625
 43
0.38
 44
0.18
 45
0.0
 46
0.0
 47
0.1
 48
0.1
140
3.5714285714
141
0.09
142
0.0
143
25.4
144
1.0
145
0.0
146
1.0
147
0.09
 71
0.0
 72
0.0
 73
0
 74
0
 75
0
 76
0
 77
1
 78
8
170
0
171
2
172
0
173
0
174
0
175
0
176
0
177
0
178
5
270
2
271
3
272
3
273
2
274
2
275
0
280
0
281
0
282
0
283
1
284
8
285
0
286
0
287
3
288
0
340
11
341
21B
342
21B
343
21B
344
21B
  0
DIMSTYLE
105
247
100
AcDbSymbolTableRecord
100
AcDbDimStyleTableRecord
  2
DIMSTYLE_6
 70
0
  3

  4

 40
1.0
 41
5.0
 42
0.0625
 43
0.38
 44
0.18
 45
0.0
 46
0.0
 47
0.3
 48
0.3
140
3.5714285714
141
0.09
142
0.0
143
25.4
144
1.0
145
0.0
146
1.0
147
0.09
 71
0.0
 72
0.0
 73
0
 74
0
 75
0
 76
0
 77
1
 78
8
170
0
171
2
172
0
173
0
174
0
175
0
176
0
177
0
178
5
270
2
271
3
272
3
273
2
274
2
275
0
280
0
281
0
282
0
283
1
284
8
285
0
286
0
287
3
288
0
340
11
341
21B
342
21B
343
21B
344
21B
  0
DIMSTYLE
105
248
100
AcDbSymbolTableRecord
100
AcDbDimStyleTableRecord
  2
DIMSTYLE_7
 70
0
  3

  4

 40
1.0
 41
5.0
 42
0.0625
 43
0.38
 44
0.18
 45
0.0
 46
0.0
 47
0.001
 48
0.001
140
3.5714285714
141
0.09
142
0.0
143
25.4
144
1.0
145
0.0
146
1.0
147
0.09
 71
0.0
 72
0.0
 73
0
 74
0
 75
0
 76
0
 77
1
 78
8
170
0
171
2
172
0
173
0
174
0
175
0
176
0
177
0
178
5
270
2
271
3
272
3
273
2
274
2
275
0
280
0
281
0
282
0
283
1
284
8
285
0
286
0
287
3
288
0
340
11
341
21B
342
21B
343
21B
344
21B
  0
DIMSTYLE
105
249
100
AcDbSymbolTableRecord
100
AcDbDimStyleTableRecord
  2
DIMSTYLE_8
 70
0
  3

  4

 40
1.0
 41
5.0
 42
0.0625
 43
0.38
 44
0.18
 45
0.0
 46
0.0
 47
0.3
 48
0.3
140
3.5714285714
141
0.09
142
0.0
143
25.4
144
1.0
145
0.0
146
1.0
147
0.09
 71
0.0
 72
0.0
 73
0
 74
0
 75
0
 76
0
 77
1
 78
8
170
0
171
2
172
0
173
0
174
0
175
0
176
0
177
0
178
5
270
2
271
3
272
3
273
2
274
2
275
0
280
0
281
0
282
0
283
1
284
8
285
0
286
0
287
3
288
0
340
11
341
21B
342
21B
343
21B
344
21B
  0
DIMSTYLE
105
24A
100
AcDbSymbolTableRecord
100
AcDbDimStyleTableRecord
  2
DIMSTYLE_9
 70
0
  3

  4

 40
1.0
 41
5.0
 42
0.0625
 43
0.38
 44
0.18
 45
0.0
 46
0.0
 47
0.5
 48
0.5
140
3.5714285714
141
0.09
142
0.0
143
25.4
144
1.0
145
0.0
146
1.0
147
0.09
 71
0.0
 72
0.0
 73
0
 74
0
 75
0
 76
0
 77
1
 78
8
170
0
171
2
172
0
173
0
174
0
175
0
176
0
177
0
178
5
270
2
271
3
272
3
273
2
274
2
275
0
280
0
281
0
282
0
283
1
284
8
285
0
286
0
287
3
288
0
340
11
341
21B
342
21B
343
21B
344
21B
  0
ENDTAB
  0
ENDSEC
  0
SECTION
  2
BLOCKS
  0
BLOCK
  5
20
100
AcDbEntity
  8
0
100
AcDbBlockBegin
  2
*Model_Space
 70
0
 10
0.0
 20
0.0
 30
0.0
  3
*Model_Space
  1

  0
ENDBLK
  5
21
100
AcDbEntity
  8
0
100
AcDbBlockEnd
  0
BLOCK
  5
1C
100
AcDbEntity
  8
0
100
AcDbBlockBegin
  2
*Paper_Space
 70
0
 10
0.0
 20
0.0
 30
0.0
  3
*Paper_Space
  1

  0
ENDBLK
  5
1D
100
AcDbEntity
  8
0
100
AcDbBlockEnd
  0
BLOCK
  5
24B
100
AcDbEntity
  8
0
100
AcDbBlockBegin
 62
2
  6
CONTINUOUS
  2
SYMBOL_146_BL6
 70
64
 10
346.4749681742
 20
226.0979372309
  3
SYMBOL_146_BL6
  1

  0
LINE
  5
24C
100
AcDbEntity
  8
0
100
AcDbLine
 62
2
  6
CONTINUOUS
 10
337.5463967456
 20
228.2487625012
 11
337.5463967456
 21
223.9630482155
  0
LINE
  5
24D
100
AcDbEntity
  8
0
100
AcDbLine
 62
2
  6
CONTINUOUS
 10
337.5463967456
 20
228.2407943737
 11
341.1178253171
 21
226.0979372309
  0
LINE
  5
24E
100
AcDbEntity
  8
0
100
AcDbLine
 62
2
  6
CONTINUOUS
 10
341.1178253171
 20
226.0979372309
 11
337.5463967456
 21
223.955080088
  0
LINE
  5
24F
100
AcDbEntity
  8
0
100
AcDbLine
 62
2
  6
CONTINUOUS
 10
341.1178253171
 20
226.0979372309
 11
345.4035396028
 21
226.0979372309
  0
LINE
  5
250
100
AcDbEntity
  8
0
100
AcDbLine
 62
2
  6
CONTINUOUS
 10
345.4035396028
 20
231.0979372309
 11
345.4035396028
 21
221.0979372309
  0
LINE
  5
251
100
AcDbEntity
  8
0
100
AcDbLine
 62
2
  6
CONTINUOUS
 10
345.4035396028
 20
221.0979372309
 11
355.4035396028
 21
221.0979372309
  0
LINE
  5
252
100
AcDbEntity
  8
0
100
AcDbLine
 62
2
  6
CONTINUOUS
 10
355.4035396028
 20
221.0979372309
 11
355.4035396028
 21
231.0979372309
  0
LINE
  5
253
100
AcDbEntity
  8
0
100
AcDbLine
 62
2
  6
CONTINUOUS
 10
355.4035396028
 20
231.0979372309
 11
345.4035396028
 21
231.0979372309
  0
LINE
  5
254
100
AcDbEntity
  8
0
100
AcDbLine
 62
2
  6
CONTINUOUS
 10
337.5463967456
 20
224.1019212946
 11
337.79113209
 21
224.1019212946
  0
LINE
  5
255
100
AcDbEntity
  8
0
100
AcDbLine
 62
2
  6
CONTINUOUS
 10
337.5463967456
 20
224.2447784375
 11
338.0292273281
 21
224.2447784375
  0
LINE
  5
256
100
AcDbEntity
  8
0
100
AcDbLine
 62
2
  6
CONTINUOUS
 10
337.5463967456
 20
224.3876355803
 11
338.2673225662
 21
224.3876355803
  0
LINE
  5
257
100
AcDbEntity
  8
0
100
AcDbLine
 62
2
  6
CONTINUOUS
 10
337.5463967456
 20
224.5304927232
 11
338.5054178043
 21
224.5304927232
  0
LINE
  5
258
100
AcDbEntity
  8
0
100
AcDbLine
 62
2
  6
CONTINUOUS
 10
337.5463967456
 20
224.6733498661
 11
338.7435130424
 21
224.6733498661
  0
LINE
  5
259
100
AcDbEntity
  8
0
100
AcDbLine
 62
2
  6
CONTINUOUS
 10
337.5463967456
 20
224.8162070089
 11
338.9816082805
 21
224.8162070089
  0
LINE
  5
25A
100
AcDbEntity
  8
0
100
AcDbLine
 62
2
  6
CONTINUOUS
 10
337.5463967456
 20
224.9590641518
 11
339.2197035186
 21
224.9590641518
  0
LINE
  5
25B
100
AcDbEntity
  8
0
100
AcDbLine
 62
2
  6
CONTINUOUS
 10
337.5463967456
 20
225.1019212946
 11
339.4577987566
 21
225.1019212946
  0
LINE
  5
25C
100
AcDbEntity
  8
0
100
AcDbLine
 62
2
  6
CONTINUOUS
 10
337.5463967456
 20
225.2447784375
 11
339.6958939947
 21
225.2447784375
  0
LINE
  5
25D
100
AcDbEntity
  8
0
100
AcDbLine
 62
2
  6
CONTINUOUS
 10
337.5463967456
 20
225.3876355803
 11
339.9339892328
 21
225.3876355803
  0
LINE
  5
25E
100
AcDbEntity
  8
0
100
AcDbLine
 62
2
  6
CONTINUOUS
 10
337.5463967456
 20
225.5304927232
 11
340.1720844709
 21
225.5304927232
  0
LINE
  5
25F
100
AcDbEntity
  8
0
100
AcDbLine
 62
2
  6
CONTINUOUS
 10
337.5463967456
 20
225.6733498661
 11
340.410179709
 21
225.6733498661
  0
LINE
  5
260
100
AcDbEntity
  8
0
100
AcDbLine
 62
2
  6
CONTINUOUS
 10
337.5463967456
 20
225.8162070089
 11
340.6482749471
 21
225.8162070089
  0
LINE
  5
261
100
AcDbEntity
  8
0
100
AcDbLine
 62
2
  6
CONTINUOUS
 10
337.5463967456
 20
225.9590641518
 11
340.8863701852
 21
225.9590641518
  0
LINE
  5
262
100
AcDbEntity
  8
0
100
AcDbLine
 62
2
  6
CONTINUOUS
 10
337.5463967456
 20
226.1019212946
 11
341.1111852108
 21
226.1019212946
  0
LINE
  5
263
100
AcDbEntity
  8
0
100
AcDbLine
 62
2
  6
CONTINUOUS
 10
337.5463967456
 20
226.2447784375
 11
340.8730899727
 21
226.2447784375
  0
LINE
  5
264
100
AcDbEntity
  8
0
100
AcDbLine
 62
2
  6
CONTINUOUS
 10
337.5463967456
 20
226.3876355803
 11
340.6349947346
 21
226.3876355803
  0
LINE
  5
265
100
AcDbEntity
  8
0
100
AcDbLine
 62
2
  6
CONTINUOUS
 10
337.5463967456
 20
226.5304927232
 11
340.3968994965
 21
226.5304927232
  0
LINE
  5
266
100
AcDbEntity
  8
0
100
AcDbLine
 62
2
  6
CONTINUOUS
 10
337.5463967456
 20
226.6733498661
 11
340.1588042584
 21
226.6733498661
  0
LINE
  5
267
100
AcDbEntity
  8
0
100
AcDbLine
 62
2
  6
CONTINUOUS
 10
337.5463967456
 20
226.8162070089
 11
339.9207090204
 21
226.8162070089
  0
LINE
  5
268
100
AcDbEntity
  8
0
100
AcDbLine
 62
2
  6
CONTINUOUS
 10
337.5463967456
 20
226.9590641518
 11
339.6826137823
 21
226.9590641518
  0
LINE
  5
269
100
AcDbEntity
  8
0
100
AcDbLine
 62
2
  6
CONTINUOUS
 10
337.5463967456
 20
227.1019212946
 11
339.4445185442
 21
227.1019212946
  0
LINE
  5
26A
100
AcDbEntity
  8
0
100
AcDbLine
 62
2
  6
CONTINUOUS
 10
337.5463967456
 20
227.2447784375
 11
339.2064233061
 21
227.2447784375
  0
LINE
  5
26B
100
AcDbEntity
  8
0
100
AcDbLine
 62
2
  6
CONTINUOUS
 10
337.5463967456
 20
227.3876355803
 11
338.968328068
 21
227.3876355803
  0
LINE
  5
26C
100
AcDbEntity
  8
0
100
AcDbLine
 62
2
  6
CONTINUOUS
 10
337.5463967456
 20
227.5304927232
 11
338.7302328299
 21
227.5304927232
  0
LINE
  5
26D
100
AcDbEntity
  8
0
100
AcDbLine
 62
2
  6
CONTINUOUS
 10
337.5463967456
 20
227.6733498661
 11
338.4921375918
 21
227.6733498661
  0
LINE
  5
26E
100
AcDbEntity
  8
0
100
AcDbLine
 62
2
  6
CONTINUOUS
 10
337.5463967456
 20
227.8162070089
 11
338.2540423537
 21
227.8162070089
  0
LINE
  5
26F
100
AcDbEntity
  8
0
100
AcDbLine
 62
2
  6
CONTINUOUS
 10
337.5463967456
 20
227.9590641518
 11
338.0159471156
 21
227.9590641518
  0
LINE
  5
270
100
AcDbEntity
  8
0
100
AcDbLine
 62
2
  6
CONTINUOUS
 10
337.5463967456
 20
228.1019212946
 11
337.7778518775
 21
228.1019212946
  0
ENDBLK
  5
271
100
AcDbEntity
  8
0
  6
BYBLOCK
 62
0
100
AcDbBlockEnd
  0
BLOCK
  5
272
100
AcDbEntity
  8
0
100
AcDbBlockBegin
 62
2
  6
CONTINUOUS
  2
SYMBOL_163_BL5
 70
64
 10
164.2686209564
 20
209.5020929973
  3
SYMBOL_163_BL5
  1

  0
TEXT
  5
273
100
AcDbEntity
  8
0
100
AcDbText
 62
5
  6
CONTINUOUS
 10
156.8876685754
 20
207.5020929973
  7
TEXTSTYLE_2
 40
4.0
  1
n
 41
1.0
 72
0
100
AcDbText
  0
TEXT
  5
274
100
AcDbEntity
  8
0
100
AcDbText
 62
5
  6
CONTINUOUS
 10
162.2210019088
 20
207.5020929973
  7
STANDARD
 40
4.0
  1
   
 41
0.7857142857
 72
0
100
AcDbText
  0
TEXT
  5
275
100
AcDbEntity
  8
0
100
AcDbText
 62
5
  6
CONTINUOUS
 10
145.4114780992
 20
207.787807283
  7
TEXTSTYLE_2
 40
3.4285714286
  1
j
 41
1.0
 72
0
100
AcDbText
  0
LINE
  5
276
100
AcDbEntity
  8
0
100
AcDbLine
 62
2
  6
CONTINUOUS
 10
143.5543352421
 20
214.5020929973
 11
143.5543352421
 21
204.5020929973
  0
LINE
  5
277
100
AcDbEntity
  8
0
100
AcDbLine
 62
2
  6
CONTINUOUS
 10
143.5543352421
 20
204.5020929973
 11
174.9829066707
 21
204.5020929973
  0
LINE
  5
278
100
AcDbEntity
  8
0
100
AcDbLine
 62
2
  6
CONTINUOUS
 10
184.9829066707
 20
204.5020929973
 11
184.9829066707
 21
214.5020929973
  0
LINE
  5
279
100
AcDbEntity
  8
0
100
AcDbLine
 62
2
  6
CONTINUOUS
 10
174.9829066707
 20
214.5020929973
 11
143.5543352421
 21
214.5020929973
  0
LINE
  5
27A
100
AcDbEntity
  8
0
100
AcDbLine
 62
2
  6
CONTINUOUS
 10
153.5543352421
 20
214.5020929973
 11
153.5543352421
 21
204.5020929973
  0
LINE
  5
27B
100
AcDbEntity
  8
0
100
AcDbLine
 62
2
  6
CONTINUOUS
 10
174.9829066707
 20
214.5020929973
 11
174.9829066707
 21
204.5020929973
  0
LINE
  5
27C
100
AcDbEntity
  8
0
100
AcDbLine
 62
2
  6
CONTINUOUS
 10
174.9829066707
 20
214.5020929973
 11
184.9829066707
 21
214.5020929973
  0
LINE
  5
27D
100
AcDbEntity
  8
0
100
AcDbLine
 62
2
  6
CONTINUOUS
 10
174.9829066707
 20
204.5020929973
 11
184.9829066707
 21
204.5020929973
  0
ENDBLK
  5
27E
100
AcDbEntity
  8
0
  6
BYBLOCK
 62
0
100
AcDbBlockEnd
  0
BLOCK
  5
27F
100
AcDbEntity
  8
0
100
AcDbBlockBegin
 62
2
  6
CONTINUOUS
  2
SYMBOL_104_BL4
 70
64
 10
140.7609355231
 20
365.4269501402
  3
SYMBOL_104_BL4
  1

  0
TEXT
  5
280
100
AcDbEntity
  8
0
100
AcDbText
 62
5
  6
CONTINUOUS
 10
131.8085545707
 20
363.4269501402
  7
TEXTSTYLE_2
 40
4.0
  1
n
 41
1.0
 72
0
100
AcDbText
  0
TEXT
  5
281
100
AcDbEntity
  8
0
100
AcDbText
 62
5
  6
CONTINUOUS
 10
137.1418879041
 20
363.4269501402
  7
STANDARD
 40
4.0
  1
    
 41
0.7857142857
 72
0
100
AcDbText
  0
TEXT
  5
282
100
AcDbEntity
  8
0
100
AcDbText
 62
5
  6
CONTINUOUS
 10
121.903792666
 20
363.7126644259
  7
TEXTSTYLE_2
 40
3.4285714286
  1
j
 41
1.0
 72
0
100
AcDbText
  0
LINE
  5
283
100
AcDbEntity
  8
0
100
AcDbLine
 62
2
  6
CONTINUOUS
 10
120.0466498088
 20
370.4269501402
 11
120.0466498088
 21
360.4269501402
  0
LINE
  5
284
100
AcDbEntity
  8
0
100
AcDbLine
 62
2
  6
CONTINUOUS
 10
120.0466498088
 20
360.4269501402
 11
151.4752212374
 21
360.4269501402
  0
LINE
  5
285
100
AcDbEntity
  8
0
100
AcDbLine
 62
2
  6
CONTINUOUS
 10
161.4752212374
 20
360.4269501402
 11
161.4752212374
 21
370.4269501402
  0
LINE
  5
286
100
AcDbEntity
  8
0
100
AcDbLine
 62
2
  6
CONTINUOUS
 10
151.4752212374
 20
370.4269501402
 11
120.0466498088
 21
370.4269501402
  0
LINE
  5
287
100
AcDbEntity
  8
0
100
AcDbLine
 62
2
  6
CONTINUOUS
 10
130.0466498088
 20
370.4269501402
 11
130.0466498088
 21
360.4269501402
  0
LINE
  5
288
100
AcDbEntity
  8
0
100
AcDbLine
 62
2
  6
CONTINUOUS
 10
151.4752212374
 20
370.4269501402
 11
151.4752212374
 21
360.4269501402
  0
LINE
  5
289
100
AcDbEntity
  8
0
100
AcDbLine
 62
2
  6
CONTINUOUS
 10
151.4752212374
 20
370.4269501402
 11
161.4752212374
 21
370.4269501402
  0
LINE
  5
28A
100
AcDbEntity
  8
0
100
AcDbLine
 62
2
  6
CONTINUOUS
 10
151.4752212374
 20
360.4269501402
 11
161.4752212374
 21
360.4269501402
  0
ENDBLK
  5
28B
100
AcDbEntity
  8
0
  6
BYBLOCK
 62
0
100
AcDbBlockEnd
  0
BLOCK
  5
28C
100
AcDbEntity
  8
0
100
AcDbBlockBegin
 62
2
  6
CONTINUOUS
  2
SYMBOL_179_BL3
 70
64
 10
426.0627597154
 20
372.6857113735
  3
SYMBOL_179_BL3
  1

  0
LINE
  5
28D
100
AcDbEntity
  8
0
100
AcDbLine
 62
2
  6
CONTINUOUS
 10
403.2056227068
 20
377.6887011894
 11
403.2056227068
 21
367.6887045767
  0
LINE
  5
28E
100
AcDbEntity
  8
0
100
AcDbLine
 62
2
  6
CONTINUOUS
 10
403.2056227068
 20
367.6887045767
 11
434.6341834896
 21
367.6887045767
  0
LINE
  5
28F
100
AcDbEntity
  8
0
100
AcDbLine
 62
2
  6
CONTINUOUS
 10
441.9797343396
 20
367.6616372995
 11
441.9797343396
 21
377.7097854474
  0
LINE
  5
290
100
AcDbEntity
  8
0
100
AcDbLine
 62
2
  6
CONTINUOUS
 10
434.6341834896
 20
377.6887011894
 11
403.2056227068
 21
377.6887011894
  0
LINE
  5
291
100
AcDbEntity
  8
0
100
AcDbLine
 62
2
  6
CONTINUOUS
 10
413.2056193195
 20
377.6887011894
 11
413.2056193195
 21
367.6887045767
  0
LINE
  5
292
100
AcDbEntity
  8
0
100
AcDbLine
 62
2
  6
CONTINUOUS
 10
434.6341834896
 20
377.6887011894
 11
434.6341834896
 21
367.6887045767
  0
LINE
  5
293
100
AcDbEntity
  8
0
100
AcDbLine
 62
2
  6
CONTINUOUS
 10
434.6341834896
 20
377.6887011894
 11
448.889722105
 21
377.7097854474
  0
LINE
  5
294
100
AcDbEntity
  8
0
100
AcDbLine
 62
2
  6
CONTINUOUS
 10
434.6171272882
 20
367.6314626804
 11
448.9198967241
 21
367.6616372995
  0
LINE
  5
295
100
AcDbEntity
  8
0
100
AcDbLine
 62
2
  6
CONTINUOUS
 10
448.889722105
 20
367.6918119185
 11
448.889722105
 21
377.7399600665
  0
TEXT
  5
296
100
AcDbEntity
  8
0
100
AcDbText
 62
5
  6
CONTINUOUS
 10
405.3035343366
 20
371.2279759412
  7
TEXTSTYLE_2
 40
3.4285715383
  1
h
 41
1.0
 72
0
100
AcDbText
  0
ENDBLK
  5
297
100
AcDbEntity
  8
0
  6
BYBLOCK
 62
0
100
AcDbBlockEnd
  0
BLOCK
  5
298
100
AcDbEntity
  8
0
100
AcDbBlockBegin
 62
2
  6
CONTINUOUS
  2
SYMBOL_115_BL2
 70
64
 10
426.2522693101
 20
354.114282802
  3
SYMBOL_115_BL2
  1

  0
LINE
  5
299
100
AcDbEntity
  8
0
100
AcDbLine
 62
2
  6
CONTINUOUS
 10
403.3951323015
 20
359.117272618
 11
403.3951323015
 21
349.1172760053
  0
LINE
  5
29A
100
AcDbEntity
  8
0
100
AcDbLine
 62
2
  6
CONTINUOUS
 10
403.3951323015
 20
349.1172760053
 11
434.8236930843
 21
349.1172760053
  0
LINE
  5
29B
100
AcDbEntity
  8
0
100
AcDbLine
 62
2
  6
CONTINUOUS
 10
442.1692439343
 20
349.0902087281
 11
442.1692439343
 21
359.138356876
  0
LINE
  5
29C
100
AcDbEntity
  8
0
100
AcDbLine
 62
2
  6
CONTINUOUS
 10
434.8236930843
 20
359.117272618
 11
403.3951323015
 21
359.117272618
  0
LINE
  5
29D
100
AcDbEntity
  8
0
100
AcDbLine
 62
2
  6
CONTINUOUS
 10
413.3951289142
 20
359.117272618
 11
413.3951289142
 21
349.1172760053
  0
LINE
  5
29E
100
AcDbEntity
  8
0
100
AcDbLine
 62
2
  6
CONTINUOUS
 10
434.8236930843
 20
359.117272618
 11
434.8236930843
 21
349.1172760053
  0
LINE
  5
29F
100
AcDbEntity
  8
0
100
AcDbLine
 62
2
  6
CONTINUOUS
 10
434.8236930843
 20
359.117272618
 11
449.0792316997
 21
359.138356876
  0
LINE
  5
2A0
100
AcDbEntity
  8
0
100
AcDbLine
 62
2
  6
CONTINUOUS
 10
434.8066368829
 20
349.060034109
 11
449.1094063188
 21
349.0902087281
  0
LINE
  5
2A1
100
AcDbEntity
  8
0
100
AcDbLine
 62
2
  6
CONTINUOUS
 10
449.0792316997
 20
349.1203833471
 11
449.0792316997
 21
359.1685314951
  0
TEXT
  5
2A2
100
AcDbEntity
  8
0
100
AcDbText
 62
5
  6
CONTINUOUS
 10
405.4930439313
 20
352.6565473697
  7
TEXTSTYLE_2
 40
3.4285715383
  1
h
 41
1.0
 72
0
100
AcDbText
  0
ENDBLK
  5
2A3
100
AcDbEntity
  8
0
  6
BYBLOCK
 62
0
100
AcDbBlockEnd
  0
BLOCK
  5
2A4
100
AcDbEntity
  8
0
100
AcDbBlockBegin
 62
2
  6
CONTINUOUS
  2
SYMBOL_143_BL1
 70
64
 10
410.4035396028
 20
334.9637089967
  3
SYMBOL_143_BL1
  1

  0
LINE
  5
2A5
100
AcDbEntity
  8
0
100
AcDbLine
 62
2
  6
CONTINUOUS
 10
412.5503808094
 20
326.0351375681
 11
408.2646665237
 21
326.0351375681
  0
LINE
  5
2A6
100
AcDbEntity
  8
0
100
AcDbLine
 62
2
  6
CONTINUOUS
 10
405.4035396028
 20
343.8922804252
 11
415.4035396028
 21
343.8922804252
  0
LINE
  5
2A7
100
AcDbEntity
  8
0
100
AcDbLine
 62
2
  6
CONTINUOUS
 10
415.4035396028
 20
343.8922804252
 11
415.4035396028
 21
333.8922804252
  0
LINE
  5
2A8
100
AcDbEntity
  8
0
100
AcDbLine
 62
2
  6
CONTINUOUS
 10
415.4035396028
 20
333.8922804252
 11
405.4035396028
 21
333.8922804252
  0
LINE
  5
2A9
100
AcDbEntity
  8
0
100
AcDbLine
 62
2
  6
CONTINUOUS
 10
405.4035396028
 20
333.8922804252
 11
405.4035396028
 21
343.8922804252
  0
LINE
  5
2AA
100
AcDbEntity
  8
0
100
AcDbLine
 62
2
  6
CONTINUOUS
 10
408.2566983962
 20
326.0351375681
 11
410.4035396028
 21
329.6065661395
  0
LINE
  5
2AB
100
AcDbEntity
  8
0
100
AcDbLine
 62
2
  6
CONTINUOUS
 10
410.4035396028
 20
329.6065661395
 11
412.5424126819
 21
326.0351375681
  0
LINE
  5
2AC
100
AcDbEntity
  8
0
100
AcDbLine
 62
2
  6
CONTINUOUS
 10
410.4035396028
 20
329.6065661395
 11
410.4035396028
 21
333.8922804252
  0
LINE
  5
2AD
100
AcDbEntity
  8
0
100
AcDbLine
 62
2
  6
CONTINUOUS
 10
408.4035396028
 20
326.0351375681
 11
408.4035396028
 21
326.2794187376
  0
LINE
  5
2AE
100
AcDbEntity
  8
0
100
AcDbLine
 62
2
  6
CONTINUOUS
 10
408.5463967456
 20
326.0351375681
 11
408.5463967456
 21
326.5170721235
  0
LINE
  5
2AF
100
AcDbEntity
  8
0
100
AcDbLine
 62
2
  6
CONTINUOUS
 10
408.6892538885
 20
326.0351375681
 11
408.6892538885
 21
326.7547255093
  0
LINE
  5
2B0
100
AcDbEntity
  8
0
100
AcDbLine
 62
2
  6
CONTINUOUS
 10
408.8321110314
 20
326.0351375681
 11
408.8321110314
 21
326.9923788952
  0
LINE
  5
2B1
100
AcDbEntity
  8
0
100
AcDbLine
 62
2
  6
CONTINUOUS
 10
408.9749681742
 20
326.0351375681
 11
408.9749681742
 21
327.230032281
  0
LINE
  5
2B2
100
AcDbEntity
  8
0
100
AcDbLine
 62
2
  6
CONTINUOUS
 10
409.1178253171
 20
326.0351375681
 11
409.1178253171
 21
327.4676856669
  0
LINE
  5
2B3
100
AcDbEntity
  8
0
100
AcDbLine
 62
2
  6
CONTINUOUS
 10
409.2606824599
 20
326.0351375681
 11
409.2606824599
 21
327.7053390527
  0
LINE
  5
2B4
100
AcDbEntity
  8
0
100
AcDbLine
 62
2
  6
CONTINUOUS
 10
409.4035396028
 20
326.0351375681
 11
409.4035396028
 21
327.9429924386
  0
LINE
  5
2B5
100
AcDbEntity
  8
0
100
AcDbLine
 62
2
  6
CONTINUOUS
 10
409.5463967456
 20
326.0351375681
 11
409.5463967456
 21
328.1806458244
  0
LINE
  5
2B6
100
AcDbEntity
  8
0
100
AcDbLine
 62
2
  6
CONTINUOUS
 10
409.6892538885
 20
326.0351375681
 11
409.6892538885
 21
328.4182992103
  0
LINE
  5
2B7
100
AcDbEntity
  8
0
100
AcDbLine
 62
2
  6
CONTINUOUS
 10
409.8321110314
 20
326.0351375681
 11
409.8321110314
 21
328.6559525961
  0
LINE
  5
2B8
100
AcDbEntity
  8
0
100
AcDbLine
 62
2
  6
CONTINUOUS
 10
409.9749681742
 20
326.0351375681
 11
409.9749681742
 21
328.893605982
  0
LINE
  5
2B9
100
AcDbEntity
  8
0
100
AcDbLine
 62
2
  6
CONTINUOUS
 10
410.1178253171
 20
326.0351375681
 11
410.1178253171
 21
329.1312593678
  0
LINE
  5
2BA
100
AcDbEntity
  8
0
100
AcDbLine
 62
2
  6
CONTINUOUS
 10
410.2606824599
 20
326.0351375681
 11
410.2606824599
 21
329.3689127537
  0
LINE
  5
2BB
100
AcDbEntity
  8
0
100
AcDbLine
 62
2
  6
CONTINUOUS
 10
410.4035396028
 20
326.0351375681
 11
410.4035396028
 21
329.6065661395
  0
LINE
  5
2BC
100
AcDbEntity
  8
0
100
AcDbLine
 62
2
  6
CONTINUOUS
 10
410.5463967456
 20
326.0351375681
 11
410.5463967456
 21
329.3680274031
  0
LINE
  5
2BD
100
AcDbEntity
  8
0
100
AcDbLine
 62
2
  6
CONTINUOUS
 10
410.6892538885
 20
326.0351375681
 11
410.6892538885
 21
329.1294886667
  0
LINE
  5
2BE
100
AcDbEntity
  8
0
100
AcDbLine
 62
2
  6
CONTINUOUS
 10
410.8321110314
 20
326.0351375681
 11
410.8321110314
 21
328.8909499303
  0
LINE
  5
2BF
100
AcDbEntity
  8
0
100
AcDbLine
 62
2
  6
CONTINUOUS
 10
410.9749681742
 20
326.0351375681
 11
410.9749681742
 21
328.6524111939
  0
LINE
  5
2C0
100
AcDbEntity
  8
0
100
AcDbLine
 62
2
  6
CONTINUOUS
 10
411.1178253171
 20
326.0351375681
 11
411.1178253171
 21
328.4138724575
  0
LINE
  5
2C1
100
AcDbEntity
  8
0
100
AcDbLine
 62
2
  6
CONTINUOUS
 10
411.2606824599
 20
326.0351375681
 11
411.2606824599
 21
328.1753337211
  0
LINE
  5
2C2
100
AcDbEntity
  8
0
100
AcDbLine
 62
2
  6
CONTINUOUS
 10
411.4035396028
 20
326.0351375681
 11
411.4035396028
 21
327.9367949847
  0
LINE
  5
2C3
100
AcDbEntity
  8
0
100
AcDbLine
 62
2
  6
CONTINUOUS
 10
411.5463967456
 20
326.0351375681
 11
411.5463967456
 21
327.6982562483
  0
LINE
  5
2C4
100
AcDbEntity
  8
0
100
AcDbLine
 62
2
  6
CONTINUOUS
 10
411.6892538885
 20
326.0351375681
 11
411.6892538885
 21
327.4597175118
  0
LINE
  5
2C5
100
AcDbEntity
  8
0
100
AcDbLine
 62
2
  6
CONTINUOUS
 10
411.8321110314
 20
326.0351375681
 11
411.8321110314
 21
327.2211787754
  0
LINE
  5
2C6
100
AcDbEntity
  8
0
100
AcDbLine
 62
2
  6
CONTINUOUS
 10
411.9749681742
 20
326.0351375681
 11
411.9749681742
 21
326.982640039
  0
LINE
  5
2C7
100
AcDbEntity
  8
0
100
AcDbLine
 62
2
  6
CONTINUOUS
 10
412.1178253171
 20
326.0351375681
 11
412.1178253171
 21
326.7441013026
  0
LINE
  5
2C8
100
AcDbEntity
  8
0
100
AcDbLine
 62
2
  6
CONTINUOUS
 10
412.2606824599
 20
326.0351375681
 11
412.2606824599
 21
326.5055625662
  0
LINE
  5
2C9
100
AcDbEntity
  8
0
100
AcDbLine
 62
2
  6
CONTINUOUS
 10
412.4035396028
 20
326.0351375681
 11
412.4035396028
 21
326.2670238298
  0
ENDBLK
  5
2CA
100
AcDbEntity
  8
0
  6
BYBLOCK
 62
0
100
AcDbBlockEnd
  0
BLOCK
  5
2CB
100
AcDbEntity
  8
0
100
AcDbBlockBegin
 62
2
  6
CONTINUOUS
  2
SYMBOL_152_BL0
 70
64
 10
411.4860313143
 20
221.8285685163
  3
SYMBOL_152_BL0
  1

  0
LINE
  5
2CC
100
AcDbEntity
  8
0
100
AcDbLine
 62
2
  6
CONTINUOUS
 10
388.6288943056
 20
226.8315583322
 11
388.6288943056
 21
216.8315617195
  0
LINE
  5
2CD
100
AcDbEntity
  8
0
100
AcDbLine
 62
2
  6
CONTINUOUS
 10
388.6288943056
 20
216.8315617195
 11
420.0574550884
 21
216.8315617195
  0
LINE
  5
2CE
100
AcDbEntity
  8
0
100
AcDbLine
 62
2
  6
CONTINUOUS
 10
427.4030059384
 20
216.8044944423
 11
427.4030059384
 21
226.8526425903
  0
LINE
  5
2CF
100
AcDbEntity
  8
0
100
AcDbLine
 62
2
  6
CONTINUOUS
 10
420.0574550884
 20
226.8315583322
 11
388.6288943056
 21
226.8315583322
  0
LINE
  5
2D0
100
AcDbEntity
  8
0
100
AcDbLine
 62
2
  6
CONTINUOUS
 10
398.6288909183
 20
226.8315583322
 11
398.6288909183
 21
216.8315617195
  0
LINE
  5
2D1
100
AcDbEntity
  8
0
100
AcDbLine
 62
2
  6
CONTINUOUS
 10
420.0574550884
 20
226.8315583322
 11
420.0574550884
 21
216.8315617195
  0
LINE
  5
2D2
100
AcDbEntity
  8
0
100
AcDbLine
 62
2
  6
CONTINUOUS
 10
420.0574550884
 20
226.8315583322
 11
434.3129937038
 21
226.8526425903
  0
LINE
  5
2D3
100
AcDbEntity
  8
0
100
AcDbLine
 62
2
  6
CONTINUOUS
 10
420.0403988871
 20
216.7743198233
 11
434.3431683229
 21
216.8044944423
  0
LINE
  5
2D4
100
AcDbEntity
  8
0
100
AcDbLine
 62
2
  6
CONTINUOUS
 10
434.3129937038
 20
216.8346690614
 11
434.3129937038
 21
226.8828172094
  0
TEXT
  5
2D5
100
AcDbEntity
  8
0
100
AcDbText
 62
5
  6
CONTINUOUS
 10
390.7268059355
 20
220.370833084
  7
TEXTSTYLE_2
 40
3.4285715383
  1
h
 41
1.0
 72
0
100
AcDbText
  0
ENDBLK
  5
2D6
100
AcDbEntity
  8
0
  6
BYBLOCK
 62
0
100
AcDbBlockEnd
  0
BLOCK
  5
2D7
100
AcDbEntity
  8
0
100
AcDbBlockBegin
  2
_FILLED
 70
64
 10
0.0
 20
0.0
  3
_FILLED
  1

  0
SOLID
  5
2D8
100
AcDbEntity
  8
0
  6
BYBLOCK
 62
0
100
AcDbTrace
 10
0.0
 20
0.0
 11
-1.0
 21
0.125
 12
-1.0
 22
-0.125
 13
-1.0
 23
-0.125
  0
ENDBLK
  5
2D9
100
AcDbEntity
  8
0
  6
BYBLOCK
 62
0
100
AcDbBlockEnd
  0
BLOCK
  5
2DA
100
AcDbEntity
  8
0
100
AcDbBlockBegin
  2
_NONE
 70
64
 10
0.0
 20
0.0
  3
_NONE
  1

  0
ENDBLK
  5
2DB
100
AcDbEntity
  8
0
  6
BYBLOCK
 62
0
100
AcDbBlockEnd
  0
BLOCK
  5
2DC
100
AcDbEntity
  8
0
100
AcDbBlockBegin
 62
2
  6
CONTINUOUS
  2
*D0
 70
65
 10
0.0
 20
0.0
  3
*D0
  1

  0
MTEXT
  5
2DD
100
AcDbEntity
  8
0
100
AcDbMText
 62
5
  6
CONTINUOUS
  7
TEXTSTYLE_2
 71
2
 72
1
 10
384.510684493
 20
277.0352829487
 30
0.0
 11
0.0009543697
 21
0.9999995446
 31
0.0
 44
0.9
  1
{\Fgdt;n}\Ftxt;31.5
 40
3.5714285714
 41
13.9455782313
  0
LINE
  5
2DE
100
AcDbEntity
  8
0
100
AcDbLine
 62
2
  6
CONTINUOUS
 10
367.5463967456
 20
265.2794041745
 11
391.1065894402
 21
265.2569190299
  0
LINE
  5
2DF
100
AcDbEntity
  8
0
100
AcDbLine
 62
2
  6
CONTINUOUS
 10
367.5463967456
 20
296.7794185199
 11
391.1366520862
 21
296.7569046845
  0
LINE
  5
2E0
100
AcDbEntity
  8
0
100
AcDbLine
 62
2
  6
CONTINUOUS
 10
388.9637332732
 20
265.2589641079
 11
388.9787645962
 21
281.0089569352
  0
LINE
  5
2E1
100
AcDbEntity
  8
0
100
AcDbLine
 62
2
  6
CONTINUOUS
 10
388.9937959192
 20
296.7589497624
 11
388.9787645962
 21
281.0089569352
  0
INSERT
  5
2E2
100
AcDbEntity
  8
0
100
AcDbBlockReference
 62
2
  6
CONTINUOUS
  2
_FILLED
 10
388.9637332732
 20
265.2589641079
 41
5.0
 42
5.0
 43
5.0
 50
269.9453186351
  0
INSERT
  5
2E3
100
AcDbEntity
  8
0
100
AcDbBlockReference
 62
2
  6
CONTINUOUS
  2
_FILLED
 10
388.9937959192
 20
296.7589497624
 41
5.0
 42
5.0
 43
5.0
 50
89.9453186351
  0
ENDBLK
  5
2E4
100
AcDbEntity
  8
0
  6
BYBLOCK
 62
0
100
AcDbBlockEnd
  0
BLOCK
  5
2E5
100
AcDbEntity
  8
0
100
AcDbBlockBegin
 62
2
  6
CONTINUOUS
  2
*D1
 70
65
 10
0.0
 20
0.0
  3
*D1
  1

  0
MTEXT
  5
2E6
100
AcDbEntity
  8
0
100
AcDbMText
 62
5
  6
CONTINUOUS
  7
TEXTSTYLE_2
 71
2
 72
1
 10
405.9392538885
 20
277.7352305713
 30
0.0
 11
0.0
 21
1.0
 31
0.0
 44
0.9
  1
{\Fgdt;n}\Ftxt;90
 40
3.5714285714
 41
10.3741496599
  0
LINE
  5
2E7
100
AcDbEntity
  8
0
100
AcDbLine
 62
2
  6
CONTINUOUS
 10
361.0463967456
 20
236.0351375681
 11
412.5463967456
 21
236.0351375681
  0
LINE
  5
2E8
100
AcDbEntity
  8
0
100
AcDbLine
 62
2
  6
CONTINUOUS
 10
361.0463967456
 20
326.0351375681
 11
412.5463967456
 21
326.0351375681
  0
LINE
  5
2E9
100
AcDbEntity
  8
0
100
AcDbLine
 62
2
  6
CONTINUOUS
 10
410.4035396028
 20
236.0351375681
 11
410.4035396028
 21
281.0351375681
  0
LINE
  5
2EA
100
AcDbEntity
  8
0
100
AcDbLine
 62
2
  6
CONTINUOUS
 10
410.4035396028
 20
326.0351375681
 11
410.4035396028
 21
281.0351375681
  0
INSERT
  5
2EB
100
AcDbEntity
  8
0
100
AcDbBlockReference
 62
2
  6
CONTINUOUS
  2
_FILLED
 10
410.4035396028
 20
236.0351375681
 41
5.0
 42
5.0
 43
5.0
 50
270.0
  0
INSERT
  5
2EC
100
AcDbEntity
  8
0
100
AcDbBlockReference
 62
2
  6
CONTINUOUS
  2
_FILLED
 10
410.4035396028
 20
326.0351375681
 41
5.0
 42
5.0
 43
5.0
 50
90.0
  0
ENDBLK
  5
2ED
100
AcDbEntity
  8
0
  6
BYBLOCK
 62
0
100
AcDbBlockEnd
  0
BLOCK
  5
2EE
100
AcDbEntity
  8
0
100
AcDbBlockBegin
 62
2
  6
CONTINUOUS
  2
*D2
 70
65
 10
0.0
 20
0.0
  3
*D2
  1

  0
MTEXT
  5
2EF
100
AcDbEntity
  8
0
100
AcDbMText
 62
5
  6
CONTINUOUS
  7
TEXTSTYLE_2
 71
2
 72
1
 10
395.2249681742
 20
276.8440574037
 30
0.0
 11
0.0
 21
1.0
 31
0.0
 44
0.9
  1
{\Fgdt;n}\Ftxt;63
 40
3.5714285714
 41
10.119047619
  0
LINE
  5
2F0
100
AcDbEntity
  8
0
100
AcDbLine
 62
2
  6
CONTINUOUS
 10
368.2367345137
 20
249.5351497018
 11
401.8325912072
 21
249.5357404342
  0
LINE
  5
2F1
100
AcDbEntity
  8
0
100
AcDbLine
 62
2
  6
CONTINUOUS
 10
368.5440593936
 20
312.5351551154
 11
401.8314834474
 21
312.5357404244
  0
LINE
  5
2F2
100
AcDbEntity
  8
0
100
AcDbLine
 62
2
  6
CONTINUOUS
 10
399.6897340647
 20
249.5357027553
 11
399.6891801847
 21
281.0357027504
  0
LINE
  5
2F3
100
AcDbEntity
  8
0
100
AcDbLine
 62
2
  6
CONTINUOUS
 10
399.6886263048
 20
312.5357027455
 11
399.6891801847
 21
281.0357027504
  0
INSERT
  5
2F4
100
AcDbEntity
  8
0
100
AcDbBlockReference
 62
2
  6
CONTINUOUS
  2
_FILLED
 10
399.6897340647
 20
249.5357027553
 41
5.0
 42
5.0
 43
5.0
 50
270.0010074597
  0
INSERT
  5
2F5
100
AcDbEntity
  8
0
100
AcDbBlockReference
 62
2
  6
CONTINUOUS
  2
_FILLED
 10
399.6886263048
 20
312.5357027455
 41
5.0
 42
5.0
 43
5.0
 50
90.0010074597
  0
ENDBLK
  5
2F6
100
AcDbEntity
  8
0
  6
BYBLOCK
 62
0
100
AcDbBlockEnd
  0
BLOCK
  5
2F7
100
AcDbEntity
  8
0
100
AcDbBlockBegin
 62
2
  6
CONTINUOUS
  2
*D3
 70
65
 10
0.0
 20
0.0
  3
*D3
  1

  0
MTEXT
  5
2F8
100
AcDbEntity
  8
0
100
AcDbMText
 62
5
  6
CONTINUOUS
  7
TEXTSTYLE_2
 71
3
 72
1
 10
323.2249681742
 20
217.7494232824
 30
0.0
 11
0.0
 21
1.0
 31
0.0
 44
0.9
  1
{\Fgdt;n}\Ftxt;118
 40
3.5714285714
 41
11.6496598639
  0
LINE
  5
2F9
100
AcDbEntity
  8
0
100
AcDbLine
 62
2
  6
CONTINUOUS
 10
330.5463967456
 20
222.0351375681
 11
325.5463967456
 21
222.0351375681
  0
LINE
  5
2FA
100
AcDbEntity
  8
0
100
AcDbLine
 62
2
  6
CONTINUOUS
 10
330.5463967456
 20
340.0351375681
 11
325.5463967456
 21
340.0351375681
  0
LINE
  5
2FB
100
AcDbEntity
  8
0
100
AcDbLine
 62
2
  6
CONTINUOUS
 10
327.6892538885
 20
222.0351375681
 11
327.6892538885
 21
281.0351375681
  0
LINE
  5
2FC
100
AcDbEntity
  8
0
100
AcDbLine
 62
2
  6
CONTINUOUS
 10
327.6892538885
 20
281.0351375681
 11
327.6892538885
 21
206.0997634184
  0
LINE
  5
2FD
100
AcDbEntity
  8
0
100
AcDbLine
 62
2
  6
CONTINUOUS
 10
327.6892538885
 20
340.0351375681
 11
327.6892538885
 21
281.0351375681
  0
INSERT
  5
2FE
100
AcDbEntity
  8
0
100
AcDbBlockReference
 62
2
  6
CONTINUOUS
  2
_FILLED
 10
327.6892538885
 20
222.0351375681
 41
5.0
 42
5.0
 43
5.0
 50
270.0
  0
INSERT
  5
2FF
100
AcDbEntity
  8
0
100
AcDbBlockReference
 62
2
  6
CONTINUOUS
  2
_FILLED
 10
327.6892538885
 20
340.0351375681
 41
5.0
 42
5.0
 43
5.0
 50
90.0
  0
ENDBLK
  5
300
100
AcDbEntity
  8
0
  6
BYBLOCK
 62
0
100
AcDbBlockEnd
  0
BLOCK
  5
301
100
AcDbEntity
  8
0
100
AcDbBlockBegin
 62
2
  6
CONTINUOUS
  2
*D4
 70
65
 10
0.0
 20
0.0
  3
*D4
  1

  0
MTEXT
  5
302
100
AcDbEntity
  8
0
100
AcDbMText
 62
5
  6
CONTINUOUS
  7
TEXTSTYLE_2
 71
3
 72
1
 10
314.6535396028
 20
217.7494232824
 30
0.0
 11
0.0
 21
1.0
 31
0.0
 44
0.9
  1
{\Fgdt;n}\Ftxt;90
 40
3.5714285714
 41
10.3741496599
  0
LINE
  5
303
100
AcDbEntity
  8
0
100
AcDbLine
 62
2
  6
CONTINUOUS
 10
316.9749681742
 20
236.0351375681
 11
327.6892538885
 21
236.0351375681
  0
LINE
  5
304
100
AcDbEntity
  8
0
100
AcDbLine
 62
2
  6
CONTINUOUS
 10
316.9749681742
 20
326.0351375681
 11
327.6892538885
 21
326.0351375681
  0
LINE
  5
305
100
AcDbEntity
  8
0
100
AcDbLine
 62
2
  6
CONTINUOUS
 10
319.1178253171
 20
236.0351375681
 11
319.1178253171
 21
281.0351375681
  0
LINE
  5
306
100
AcDbEntity
  8
0
100
AcDbLine
 62
2
  6
CONTINUOUS
 10
319.1178253171
 20
281.0351375681
 11
319.1178253171
 21
207.3752736225
  0
LINE
  5
307
100
AcDbEntity
  8
0
100
AcDbLine
 62
2
  6
CONTINUOUS
 10
319.1178253171
 20
326.0351375681
 11
319.1178253171
 21
281.0351375681
  0
INSERT
  5
308
100
AcDbEntity
  8
0
100
AcDbBlockReference
 62
2
  6
CONTINUOUS
  2
_FILLED
 10
319.1178253171
 20
236.0351375681
 41
5.0
 42
5.0
 43
5.0
 50
270.0
  0
INSERT
  5
309
100
AcDbEntity
  8
0
100
AcDbBlockReference
 62
2
  6
CONTINUOUS
  2
_FILLED
 10
319.1178253171
 20
326.0351375681
 41
5.0
 42
5.0
 43
5.0
 50
90.0
  0
ENDBLK
  5
30A
100
AcDbEntity
  8
0
  6
BYBLOCK
 62
0
100
AcDbBlockEnd
  0
BLOCK
  5
30B
100
AcDbEntity
  8
0
100
AcDbBlockBegin
 62
2
  6
CONTINUOUS
  2
*D5
 70
65
 10
0.0
 20
0.0
  3
*D5
  1

  0
MTEXT
  5
30C
100
AcDbEntity
  8
0
100
AcDbMText
 62
5
  6
CONTINUOUS
  7
STANDARD
 71
2
 72
1
 10
352.5463967456
 20
380.2137089967
 30
0.0
 11
1.0
 21
0.0
 31
0.0
 44
0.9
  1
30
 40
3.5714285714
 41
5.3571428571
  0
LINE
  5
30D
100
AcDbEntity
  8
0
100
AcDbLine
 62
2
  6
CONTINUOUS
 10
367.5463967456
 20
314.677994711
 11
367.5463967456
 21
322.8104894852
  0
LINE
  5
30E
100
AcDbEntity
  8
0
100
AcDbLine
 62
2
  6
CONTINUOUS
 10
367.5463967456
 20
332.8277150383
 11
367.5463967456
 21
377.8922804252
  0
LINE
  5
30F
100
AcDbEntity
  8
0
100
AcDbLine
 62
2
  6
CONTINUOUS
 10
337.5463967456
 20
342.177994711
 11
337.5463967456
 21
377.8922804252
  0
LINE
  5
310
100
AcDbEntity
  8
0
100
AcDbLine
 62
2
  6
CONTINUOUS
 10
367.5463967456
 20
375.7494232824
 11
352.5463967456
 21
375.7494232824
  0
LINE
  5
311
100
AcDbEntity
  8
0
100
AcDbLine
 62
2
  6
CONTINUOUS
 10
337.5463967456
 20
375.7494232824
 11
352.5463967456
 21
375.7494232824
  0
INSERT
  5
312
100
AcDbEntity
  8
0
100
AcDbBlockReference
 62
2
  6
CONTINUOUS
  2
_FILLED
 10
367.5463967456
 20
375.7494232824
 41
5.0
 42
5.0
 43
5.0
  0
INSERT
  5
313
100
AcDbEntity
  8
0
100
AcDbBlockReference
 62
2
  6
CONTINUOUS
  2
_FILLED
 10
337.5463967456
 20
375.7494232824
 41
5.0
 42
5.0
 43
5.0
 50
180.0
  0
ENDBLK
  5
314
100
AcDbEntity
  8
0
  6
BYBLOCK
 62
0
100
AcDbBlockEnd
  0
BLOCK
  5
315
100
AcDbEntity
  8
0
100
AcDbBlockBegin
 62
2
  6
CONTINUOUS
  2
*D6
 70
65
 10
0.0
 20
0.0
  3
*D6
  1

  0
MTEXT
  5
316
100
AcDbEntity
  8
0
100
AcDbMText
 62
5
  6
CONTINUOUS
  7
STANDARD
 71
3
 72
1
 10
321.57731204
 20
351.6422804252
 30
0.0
 11
1.0
 21
0.0
 31
0.0
 44
0.9
  1
7
 40
3.5714285714
 41
2.806122449
  0
LINE
  5
317
100
AcDbEntity
  8
0
100
AcDbLine
 62
2
  6
CONTINUOUS
 10
337.5463967456
 20
342.177994711
 11
337.5463967456
 21
349.3208518538
  0
LINE
  5
318
100
AcDbEntity
  8
0
100
AcDbLine
 62
2
  6
CONTINUOUS
 10
330.5463967456
 20
342.177994711
 11
330.5463967456
 21
349.3208518538
  0
LINE
  5
319
100
AcDbEntity
  8
0
100
AcDbLine
 62
2
  6
CONTINUOUS
 10
337.5463967456
 20
347.177994711
 11
346.1178253171
 21
347.177994711
  0
LINE
  5
31A
100
AcDbEntity
  8
0
100
AcDbLine
 62
2
  6
CONTINUOUS
 10
346.1178253171
 20
347.177994711
 11
334.0463967456
 21
347.177994711
  0
LINE
  5
31B
100
AcDbEntity
  8
0
100
AcDbLine
 62
2
  6
CONTINUOUS
 10
330.5463967456
 20
347.177994711
 11
318.771189591
 21
347.177994711
  0
LINE
  5
31C
100
AcDbEntity
  8
0
100
AcDbLine
 62
2
  6
CONTINUOUS
 10
318.771189591
 20
347.177994711
 11
334.0463967456
 21
347.177994711
  0
INSERT
  5
31D
100
AcDbEntity
  8
0
100
AcDbBlockReference
 62
2
  6
CONTINUOUS
  2
_FILLED
 10
337.5463967456
 20
347.177994711
 41
5.0
 42
5.0
 43
5.0
 50
180.0
  0
INSERT
  5
31E
100
AcDbEntity
  8
0
100
AcDbBlockReference
 62
2
  6
CONTINUOUS
  2
_FILLED
 10
330.5463967456
 20
347.177994711
 41
5.0
 42
5.0
 43
5.0
  0
ENDBLK
  5
31F
100
AcDbEntity
  8
0
  6
BYBLOCK
 62
0
100
AcDbBlockEnd
  0
BLOCK
  5
320
100
AcDbEntity
  8
0
100
AcDbBlockBegin
 62
2
  6
CONTINUOUS
  2
*D7
 70
65
 10
0.0
 20
0.0
  3
*D7
  1

  0
MTEXT
  5
321
100
AcDbEntity
  8
0
100
AcDbMText
 62
5
  6
CONTINUOUS
  7
STANDARD
 71
3
 72
1
 10
326.6536340232
 20
358.7851375681
 30
0.0
 11
1.0
 21
0.0
 31
0.0
 44
0.9
  1
12
 40
3.5714285714
 41
4.8469387755
  0
LINE
  5
322
100
AcDbEntity
  8
0
100
AcDbLine
 62
2
  6
CONTINUOUS
 10
349.5463967456
 20
328.177994711
 11
349.5463967456
 21
356.4637089967
  0
LINE
  5
323
100
AcDbEntity
  8
0
100
AcDbLine
 62
2
  6
CONTINUOUS
 10
337.5463967456
 20
328.177994711
 11
337.5463967456
 21
356.4637089967
  0
LINE
  5
324
100
AcDbEntity
  8
0
100
AcDbLine
 62
2
  6
CONTINUOUS
 10
349.5463967456
 20
354.3208518538
 11
358.1178253171
 21
354.3208518538
  0
LINE
  5
325
100
AcDbEntity
  8
0
100
AcDbLine
 62
2
  6
CONTINUOUS
 10
358.1178253171
 20
354.3208518538
 11
343.5463967456
 21
354.3208518538
  0
LINE
  5
326
100
AcDbEntity
  8
0
100
AcDbLine
 62
2
  6
CONTINUOUS
 10
337.5463967456
 20
354.3208518538
 11
321.8066952477
 21
354.3208518538
  0
LINE
  5
327
100
AcDbEntity
  8
0
100
AcDbLine
 62
2
  6
CONTINUOUS
 10
321.8066952477
 20
354.3208518538
 11
343.5463967456
 21
354.3208518538
  0
INSERT
  5
328
100
AcDbEntity
  8
0
100
AcDbBlockReference
 62
2
  6
CONTINUOUS
  2
_FILLED
 10
349.5463967456
 20
354.3208518538
 41
5.0
 42
5.0
 43
5.0
 50
180.0
  0
INSERT
  5
329
100
AcDbEntity
  8
0
100
AcDbBlockReference
 62
2
  6
CONTINUOUS
  2
_FILLED
 10
337.5463967456
 20
354.3208518538
 41
5.0
 42
5.0
 43
5.0
  0
ENDBLK
  5
32A
100
AcDbEntity
  8
0
  6
BYBLOCK
 62
0
100
AcDbBlockEnd
  0
BLOCK
  5
32B
100
AcDbEntity
  8
0
100
AcDbBlockBegin
 62
2
  6
CONTINUOUS
  2
*D8
 70
65
 10
0.0
 20
0.0
  3
*D8
  1

  0
MTEXT
  5
32C
100
AcDbEntity
  8
0
100
AcDbMText
 62
5
  6
CONTINUOUS
  7
STANDARD
 71
2
 72
1
 10
364.1746196545
 20
319.5030112192
 30
0.0
 11
0.4077377417
 21
0.9130990822
 31
0.0
 44
0.9
  1
5\Fgdt;{\Fgdt;~}
 40
3.5714285714
 41
4.9319727891
  0
LINE
  5
32D
100
AcDbEntity
  8
0
100
AcDbLine
 62
2
  6
CONTINUOUS
 10
361.0463967456
 20
326.0351375681
 11
376.638236676
 21
326.0351375681
  0
LINE
  5
32E
100
AcDbEntity
  8
0
100
AcDbLine
 62
2
  6
CONTINUOUS
 10
361.0463967456
 20
325.0290179376
 11
376.5351440458
 21
323.6739281366
  0
ARC
  5
32F
100
AcDbEntity
  8
0
100
AcDbCircle
 62
2
  6
CONTINUOUS
 10
349.5463967456
 20
326.0351375681
 40
24.9489827875
100
AcDbArc
 50
360.0
 51
19.684437066
  0
ARC
  5
330
100
AcDbEntity
  8
0
100
AcDbCircle
 62
2
  6
CONTINUOUS
 10
349.5463967456
 20
326.0351375681
 40
24.9489827875
100
AcDbArc
 50
335.9371977195
 51
355.0
  0
ARC
  5
331
100
AcDbEntity
  8
0
100
AcDbCircle
 62
2
  6
CONTINUOUS
 10
349.5463967456
 20
326.0351375681
 40
24.9489827875
100
AcDbArc
 50
355.0
 51
0.0
  0
SOLID
  5
332
100
AcDbEntity
  8
0
100
AcDbTrace
 62
2
  6
CONTINUOUS
 10
373.3733303063
 20
330.9475331683
 11
374.4953795332
 21
326.0351375681
 12
374.6170599688
 22
331.0725792672
 13
374.6170599688
 23
331.0725792672
  0
SOLID
  5
333
100
AcDbEntity
  8
0
100
AcDbTrace
 62
2
  6
CONTINUOUS
 10
374.0826165533
 20
318.8318125812
 11
374.4004411213
 21
323.8606904425
 12
372.8545181434
 22
319.0647810244
 13
372.8545181434
 23
319.0647810244
  0
ENDBLK
  5
334
100
AcDbEntity
  8
0
  6
BYBLOCK
 62
0
100
AcDbBlockEnd
  0
BLOCK
  5
335
100
AcDbEntity
  8
0
100
AcDbBlockBegin
 62
2
  6
CONTINUOUS
  2
*D9
 70
65
 10
0.0
 20
0.0
  3
*D9
  1

  0
MTEXT
  5
336
100
AcDbEntity
  8
0
100
AcDbMText
 62
5
  6
CONTINUOUS
  7
STANDARD
 71
1
 72
1
 10
376.1540580807
 20
362.3565661395
 30
0.0
 11
1.0
 21
0.0
 31
0.0
 44
0.9
  1
6
 40
3.5714285714
 41
2.806122449
  0
LINE
  5
337
100
AcDbEntity
  8
0
100
AcDbLine
 62
2
  6
CONTINUOUS
 10
367.5463967456
 20
314.2754653939
 11
367.5463967456
 21
323.9768992576
  0
LINE
  5
338
100
AcDbEntity
  8
0
100
AcDbLine
 62
2
  6
CONTINUOUS
 10
367.5463967456
 20
332.3552772478
 11
367.5463967456
 21
360.0351375681
  0
LINE
  5
339
100
AcDbEntity
  8
0
100
AcDbLine
 62
2
  6
CONTINUOUS
 10
361.5463967456
 20
314.1184616653
 11
361.5463967456
 21
360.0351375681
  0
LINE
  5
33A
100
AcDbEntity
  8
0
100
AcDbLine
 62
2
  6
CONTINUOUS
 10
367.5463967456
 20
357.8922804252
 11
378.9601805297
 21
357.8922804252
  0
LINE
  5
33B
100
AcDbEntity
  8
0
100
AcDbLine
 62
2
  6
CONTINUOUS
 10
378.9601805297
 20
357.8922804252
 11
364.5463967456
 21
357.8922804252
  0
LINE
  5
33C
100
AcDbEntity
  8
0
100
AcDbLine
 62
2
  6
CONTINUOUS
 10
361.5463967456
 20
357.8922804252
 11
352.9749681742
 21
357.8922804252
  0
LINE
  5
33D
100
AcDbEntity
  8
0
100
AcDbLine
 62
2
  6
CONTINUOUS
 10
352.9749681742
 20
357.8922804252
 11
364.5463967456
 21
357.8922804252
  0
INSERT
  5
33E
100
AcDbEntity
  8
0
100
AcDbBlockReference
 62
2
  6
CONTINUOUS
  2
_FILLED
 10
367.5463967456
 20
357.8922804252
 41
5.0
 42
5.0
 43
5.0
 50
180.0
  0
INSERT
  5
33F
100
AcDbEntity
  8
0
100
AcDbBlockReference
 62
2
  6
CONTINUOUS
  2
_FILLED
 10
361.5463967456
 20
357.8922804252
 41
5.0
 42
5.0
 43
5.0
  0
ENDBLK
  5
340
100
AcDbEntity
  8
0
  6
BYBLOCK
 62
0
100
AcDbBlockEnd
  0
BLOCK
  5
341
100
AcDbEntity
  8
0
100
AcDbBlockBegin
 62
2
  6
CONTINUOUS
  2
*D10
 70
65
 10
0.0
 20
0.0
  3
*D10
  1

  0
MTEXT
  5
342
100
AcDbEntity
  8
0
100
AcDbMText
 62
5
  6
CONTINUOUS
  7
STANDARD
 71
1
 72
1
 10
376.2029829862
 20
274.0389336665
 30
0.0
 11
1.0
 21
0.0
 31
0.0
 44
0.9
  1
6
 40
3.5714285714
 41
2.806122449
  0
LINE
  5
343
100
AcDbEntity
  8
0
100
AcDbLine
 62
2
  6
CONTINUOUS
 10
367.5463967456
 20
274.9849893249
 11
367.5463967456
 21
267.4317908094
  0
LINE
  5
344
100
AcDbEntity
  8
0
100
AcDbLine
 62
2
  6
CONTINUOUS
 10
361.5463967456
 20
274.9819528261
 11
361.5463967456
 21
267.4317908094
  0
LINE
  5
345
100
AcDbEntity
  8
0
100
AcDbLine
 62
2
  6
CONTINUOUS
 10
367.5463967456
 20
269.5746479522
 11
379.0091054352
 21
269.5746479522
  0
LINE
  5
346
100
AcDbEntity
  8
0
100
AcDbLine
 62
2
  6
CONTINUOUS
 10
379.0091054352
 20
269.5746479522
 11
364.5463967456
 21
269.5746479522
  0
LINE
  5
347
100
AcDbEntity
  8
0
100
AcDbLine
 62
2
  6
CONTINUOUS
 10
361.5463967456
 20
269.5746479522
 11
352.9749681742
 21
269.5746479522
  0
LINE
  5
348
100
AcDbEntity
  8
0
100
AcDbLine
 62
2
  6
CONTINUOUS
 10
352.9749681742
 20
269.5746479522
 11
364.5463967456
 21
269.5746479522
  0
INSERT
  5
349
100
AcDbEntity
  8
0
100
AcDbBlockReference
 62
2
  6
CONTINUOUS
  2
_FILLED
 10
367.5463967456
 20
269.5746479522
 41
5.0
 42
5.0
 43
5.0
 50
180.0
  0
INSERT
  5
34A
100
AcDbEntity
  8
0
100
AcDbBlockReference
 62
2
  6
CONTINUOUS
  2
_FILLED
 10
361.5463967456
 20
269.5746479522
 41
5.0
 42
5.0
 43
5.0
  0
ENDBLK
  5
34B
100
AcDbEntity
  8
0
  6
BYBLOCK
 62
0
100
AcDbBlockEnd
  0
BLOCK
  5
34C
100
AcDbEntity
  8
0
100
AcDbBlockBegin
 62
2
  6
CONTINUOUS
  2
*D11
 70
65
 10
0.0
 20
0.0
  3
*D11
  1

  0
MTEXT
  5
34D
100
AcDbEntity
  8
0
100
AcDbMText
 62
5
  6
CONTINUOUS
  7
STANDARD
 71
2
 72
1
 10
349.9494690764
 20
369.4994232824
 30
0.0
 11
1.0
 21
0.0
 31
0.0
 44
0.9
  1
23.5
 40
3.5714285714
 41
9.9489795918
  0
LINE
  5
34E
100
AcDbEntity
  8
0
100
AcDbLine
 62
2
  6
CONTINUOUS
 10
361.0463967456
 20
327.1718750804
 11
361.0463967456
 21
367.177994711
  0
LINE
  5
34F
100
AcDbEntity
  8
0
100
AcDbLine
 62
2
  6
CONTINUOUS
 10
337.5463967456
 20
342.177994711
 11
337.5463967456
 21
367.177994711
  0
LINE
  5
350
100
AcDbEntity
  8
0
100
AcDbLine
 62
2
  6
CONTINUOUS
 10
361.0463967456
 20
365.0351375681
 11
349.2963967456
 21
365.0351375681
  0
LINE
  5
351
100
AcDbEntity
  8
0
100
AcDbLine
 62
2
  6
CONTINUOUS
 10
337.5463967456
 20
365.0351375681
 11
349.2963967456
 21
365.0351375681
  0
INSERT
  5
352
100
AcDbEntity
  8
0
100
AcDbBlockReference
 62
2
  6
CONTINUOUS
  2
_FILLED
 10
361.0463967456
 20
365.0351375681
 41
5.0
 42
5.0
 43
5.0
  0
INSERT
  5
353
100
AcDbEntity
  8
0
100
AcDbBlockReference
 62
2
  6
CONTINUOUS
  2
_FILLED
 10
337.5463967456
 20
365.0351375681
 41
5.0
 42
5.0
 43
5.0
 50
180.0
  0
ENDBLK
  5
354
100
AcDbEntity
  8
0
  6
BYBLOCK
 62
0
100
AcDbBlockEnd
  0
BLOCK
  5
355
100
AcDbEntity
  8
0
100
AcDbBlockBegin
 62
2
  6
CONTINUOUS
  2
*D12
 70
65
 10
0.0
 20
0.0
  3
*D12
  1

  0
MTEXT
  5
356
100
AcDbEntity
  8
0
100
AcDbMText
 62
5
  6
CONTINUOUS
  7
TEXTSTYLE_2
 71
3
 72
1
 10
97.0396181034
 20
369.927994711
 30
0.0
 11
1.0
 21
0.0
 31
0.0
 44
0.9
  1
{\Fgdt;n}\Ftxt;5.5
 40
3.5714285714
 41
11.9047619048
  0
LINE
  5
357
100
AcDbEntity
  8
0
100
AcDbLine
 62
2
  6
CONTINUOUS
 10
103.8411409686
 20
335.4543688311
 11
103.8150415523
 21
367.6120658273
  0
LINE
  5
358
100
AcDbEntity
  8
0
100
AcDbLine
 62
2
  6
CONTINUOUS
 10
109.3411457501
 20
335.4507093084
 11
109.3150397408
 21
367.6165296651
  0
LINE
  5
359
100
AcDbEntity
  8
0
100
AcDbLine
 62
2
  6
CONTINUOUS
 10
103.8167807098
 20
365.4692093902
 11
85.1348561986
 21
365.4637089967
  0
LINE
  5
35A
100
AcDbEntity
  8
0
100
AcDbLine
 62
2
  6
CONTINUOUS
 10
85.1348561986
 20
365.4637089967
 11
106.5667798041
 21
365.4714413091
  0
LINE
  5
35B
100
AcDbEntity
  8
0
100
AcDbLine
 62
2
  6
CONTINUOUS
 10
109.3167788984
 20
365.473673228
 11
117.8882046468
 21
365.4806298583
  0
LINE
  5
35C
100
AcDbEntity
  8
0
100
AcDbLine
 62
2
  6
CONTINUOUS
 10
117.8882046468
 20
365.4806298583
 11
106.5667798041
 21
365.4714413091
  0
INSERT
  5
35D
100
AcDbEntity
  8
0
100
AcDbBlockReference
 62
2
  6
CONTINUOUS
  2
_FILLED
 10
103.8167807098
 20
365.4692093902
 41
5.0
 42
5.0
 43
5.0
 50
0.0168692109
  0
INSERT
  5
35E
100
AcDbEntity
  8
0
100
AcDbBlockReference
 62
2
  6
CONTINUOUS
  2
_FILLED
 10
109.3167788984
 20
365.473673228
 41
5.0
 42
5.0
 43
5.0
 50
180.0465016532
  0
ENDBLK
  5
35F
100
AcDbEntity
  8
0
  6
BYBLOCK
 62
0
100
AcDbBlockEnd
  0
BLOCK
  5
360
100
AcDbEntity
  8
0
100
AcDbBlockBegin
 62
2
  6
CONTINUOUS
  2
*D13
 70
65
 10
0.0
 20
0.0
  3
*D13
  1

  0
MTEXT
  5
361
100
AcDbEntity
  8
0
100
AcDbMText
 62
5
  6
CONTINUOUS
  7
STANDARD
 71
3
 72
1
 10
49.3098015872
 20
250.5213996684
 30
0.0
 11
0.833207537
 21
0.5529603967
 31
0.0
 44
0.9
  1
     \Fgdt;{\Fgdt;n}\Ftxt;109
 40
3.5714285714
 41
26.4455782313
  0
LINE
  5
362
100
AcDbEntity
  8
0
100
AcDbLine
 62
2
  6
CONTINUOUS
 10
61.1812655558
 20
250.8987959488
 11
106.5910763218
 21
281.0351375681
  0
LINE
  5
363
100
AcDbEntity
  8
0
100
AcDbLine
 62
2
  6
CONTINUOUS
 10
106.5910763218
 20
281.0351375681
 11
29.2432783623
 21
229.7030658531
  0
LINE
  5
364
100
AcDbEntity
  8
0
100
AcDbLine
 62
2
  6
CONTINUOUS
 10
152.0008870878
 20
311.1714791874
 11
106.5910763218
 21
281.0351375681
  0
INSERT
  5
365
100
AcDbEntity
  8
0
100
AcDbBlockReference
 62
2
  6
CONTINUOUS
  2
_FILLED
 10
61.1812655558
 20
250.8987959488
 41
5.0
 42
5.0
 43
5.0
 50
213.5703465641
  0
INSERT
  5
366
100
AcDbEntity
  8
0
100
AcDbBlockReference
 62
2
  6
CONTINUOUS
  2
_FILLED
 10
152.0008870878
 20
311.1714791874
 41
5.0
 42
5.0
 43
5.0
 50
33.5703465641
  0
ENDBLK
  5
367
100
AcDbEntity
  8
0
  6
BYBLOCK
 62
0
100
AcDbBlockEnd
  0
BLOCK
  5
368
100
AcDbEntity
  8
0
100
AcDbBlockBegin
 62
2
  6
CONTINUOUS
  2
*D14
 70
65
 10
0.0
 20
0.0
  3
*D14
  1

  0
MTEXT
  5
369
100
AcDbEntity
  8
0
100
AcDbMText
 62
5
  6
CONTINUOUS
  7
STANDARD
 71
3
 72
1
 10
43.4112896087
 20
270.5632296551
 30
0.0
 11
0.9658732024
 21
0.2590153605
 31
0.0
 44
0.9
  1
     \Fgdt;{\Fgdt;n}\Ftxt;50
 40
3.5714285714
 41
24.1496598639
  0
LINE
  5
36A
100
AcDbEntity
  8
0
100
AcDbLine
 62
2
  6
CONTINUOUS
 10
82.4442462629
 20
274.559753556
 11
106.5910763218
 21
281.0351375681
  0
LINE
  5
36B
100
AcDbEntity
  8
0
100
AcDbLine
 62
2
  6
CONTINUOUS
 10
106.5910763218
 20
281.0351375681
 11
19.9798527274
 21
257.8088618558
  0
LINE
  5
36C
100
AcDbEntity
  8
0
100
AcDbLine
 62
2
  6
CONTINUOUS
 10
130.7379063808
 20
287.5105215802
 11
106.5910763218
 21
281.0351375681
  0
INSERT
  5
36D
100
AcDbEntity
  8
0
100
AcDbBlockReference
 62
2
  6
CONTINUOUS
  2
_FILLED
 10
82.4442462629
 20
274.559753556
 41
5.0
 42
5.0
 43
5.0
 50
195.0116451479
  0
INSERT
  5
36E
100
AcDbEntity
  8
0
100
AcDbBlockReference
 62
2
  6
CONTINUOUS
  2
_FILLED
 10
130.7379063808
 20
287.5105215802
 41
5.0
 42
5.0
 43
5.0
 50
15.0116451479
  0
ENDBLK
  5
36F
100
AcDbEntity
  8
0
  6
BYBLOCK
 62
0
100
AcDbBlockEnd
  0
BLOCK
  5
370
100
AcDbEntity
  8
0
100
AcDbBlockBegin
 62
2
  6
CONTINUOUS
  2
*D15
 70
65
 10
0.0
 20
0.0
  3
*D15
  1

  0
MTEXT
  5
371
100
AcDbEntity
  8
0
100
AcDbMText
 62
5
  6
CONTINUOUS
  7
STANDARD
 71
2
 72
1
 10
75.8633125391
 20
359.4681083249
 30
0.0
 11
0.9310952576
 21
0.3647761249
 31
0.0
 44
0.9
  1
8x45\Fgdt;{\Fgdt;~}
 40
3.5714285714
 41
13.0952380952
  0
LINE
  5
372
100
AcDbEntity
  8
0
100
AcDbLine
 62
2
  6
CONTINUOUS
 10
106.5910763218
 20
283.177994711
 11
106.5910763218
 21
358.4867449921
  0
LINE
  5
373
100
AcDbEntity
  8
0
100
AcDbLine
 62
2
  6
CONTINUOUS
 10
105.075847505
 20
282.5503663849
 11
51.8245194985
 21
335.8016943914
  0
ARC
  5
374
100
AcDbEntity
  8
0
100
AcDbCircle
 62
2
  6
CONTINUOUS
 10
106.5910763218
 20
281.0351375681
 40
75.3087502811
100
AcDbArc
 50
90.0
 51
112.5
  0
ARC
  5
375
100
AcDbEntity
  8
0
100
AcDbCircle
 62
2
  6
CONTINUOUS
 10
106.5910763218
 20
281.0351375681
 40
75.3087502811
100
AcDbArc
 50
112.5
 51
135.0
  0
SOLID
  5
376
100
AcDbEntity
  8
0
100
AcDbTrace
 62
2
  6
CONTINUOUS
 10
101.6145752271
 20
355.5532793152
 11
106.5910763218
 21
356.3438878492
 12
101.5730870062
 22
356.8025906165
 13
101.5730870062
 23
356.8025906165
  0
SOLID
  5
377
100
AcDbEntity
  8
0
100
AcDbTrace
 62
2
  6
CONTINUOUS
 10
56.563650751
 20
338.1590716848
 11
53.3397483153
 21
334.2864655746
 12
57.4177106417
 22
337.2463385896
 13
57.4177106417
 23
337.2463385896
  0
ENDBLK
  5
378
100
AcDbEntity
  8
0
  6
BYBLOCK
 62
0
100
AcDbBlockEnd
  0
BLOCK
  5
379
100
AcDbEntity
  8
0
100
AcDbBlockBegin
 62
2
  6
CONTINUOUS
  2
*D16
 70
65
 10
0.0
 20
0.0
  3
*D16
  1

  0
MTEXT
  5
37A
100
AcDbEntity
  8
0
100
AcDbMText
 62
5
  6
CONTINUOUS
  7
STANDARD
 71
3
 72
1
 10
84.9041093169
 20
214.0031346588
 30
0.0
 11
0.9999993483
 21
-0.0011416539
 31
0.0
 44
0.9
  1
M6
 40
3.5714285714
 41
5.8673469388
  0
LINE
  5
37B
100
AcDbEntity
  8
0
100
AcDbLine
 62
2
  6
CONTINUOUS
 10
127.2662974951
 20
261.2111873302
 11
127.204803986
 21
207.3476947093
  0
LINE
  5
37C
100
AcDbEntity
  8
0
100
AcDbLine
 62
2
  6
CONTINUOUS
 10
121.2663014052
 20
261.2180372539
 11
121.2048078961
 21
207.354544633
  0
LINE
  5
37D
100
AcDbEntity
  8
0
100
AcDbLine
 62
2
  6
CONTINUOUS
 10
127.2072503873
 20
209.4905504557
 11
135.7786733728
 21
209.4807648504
  0
LINE
  5
37E
100
AcDbEntity
  8
0
100
AcDbLine
 62
2
  6
CONTINUOUS
 10
135.7786733728
 20
209.4807648504
 11
124.2072523424
 21
209.4939754175
  0
LINE
  5
37F
100
AcDbEntity
  8
0
100
AcDbLine
 62
2
  6
CONTINUOUS
 10
121.2072542974
 20
209.4974003794
 11
79.0316695324
 21
209.5455503336
  0
LINE
  5
380
100
AcDbEntity
  8
0
100
AcDbLine
 62
2
  6
CONTINUOUS
 10
79.0316695324
 20
209.5455503336
 11
124.2072523424
 21
209.4939754175
  0
INSERT
  5
381
100
AcDbEntity
  8
0
100
AcDbBlockReference
 62
2
  6
CONTINUOUS
  2
_FILLED
 10
127.2072503873
 20
209.4905504557
 41
5.0
 42
5.0
 43
5.0
 50
179.9345880329
  0
INSERT
  5
382
100
AcDbEntity
  8
0
100
AcDbBlockReference
 62
2
  6
CONTINUOUS
  2
_FILLED
 10
121.2072542974
 20
209.4974003794
 41
5.0
 42
5.0
 43
5.0
 50
359.9345880329
  0
ENDBLK
  5
383
100
AcDbEntity
  8
0
  6
BYBLOCK
 62
0
100
AcDbBlockEnd
  0
BLOCK
  5
384
100
AcDbEntity
  8
0
100
AcDbBlockBegin
 62
2
  6
CONTINUOUS
  2
*D17
 70
65
 10
0.0
 20
0.0
  3
*D17
  1

  0
MTEXT
  5
385
100
AcDbEntity
  8
0
100
AcDbMText
 62
5
  6
CONTINUOUS
  7
TEXTSTYLE_2
 71
3
 72
1
 10
195.1535396028
 20
266.8970452982
 30
0.0
 11
0.0
 21
1.0
 31
0.0
 44
0.9
  1
{\Fgdt;n}\Ftxt;19
 40
3.5714285714
 41
9.6088435374
  0
LINE
  5
386
100
AcDbEntity
  8
0
100
AcDbLine
 62
2
  6
CONTINUOUS
 10
250.9035396028
 20
290.5351375681
 11
197.4749681742
 21
290.5351375681
  0
LINE
  5
387
100
AcDbEntity
  8
0
100
AcDbLine
 62
2
  6
CONTINUOUS
 10
250.9035396028
 20
271.5351375681
 11
197.4749681742
 21
271.5351375681
  0
LINE
  5
388
100
AcDbEntity
  8
0
100
AcDbLine
 62
2
  6
CONTINUOUS
 10
199.6178253171
 20
290.5351375681
 11
199.6178253171
 21
299.1065661395
  0
LINE
  5
389
100
AcDbEntity
  8
0
100
AcDbLine
 62
2
  6
CONTINUOUS
 10
199.6178253171
 20
299.1065661395
 11
199.6178253171
 21
281.0351375681
  0
LINE
  5
38A
100
AcDbEntity
  8
0
100
AcDbLine
 62
2
  6
CONTINUOUS
 10
199.6178253171
 20
271.5351375681
 11
199.6178253171
 21
257.2882017607
  0
LINE
  5
38B
100
AcDbEntity
  8
0
100
AcDbLine
 62
2
  6
CONTINUOUS
 10
199.6178253171
 20
257.2882017607
 11
199.6178253171
 21
281.0351375681
  0
INSERT
  5
38C
100
AcDbEntity
  8
0
100
AcDbBlockReference
 62
2
  6
CONTINUOUS
  2
_FILLED
 10
199.6178253171
 20
290.5351375681
 41
5.0
 42
5.0
 43
5.0
 50
270.0
  0
INSERT
  5
38D
100
AcDbEntity
  8
0
100
AcDbBlockReference
 62
2
  6
CONTINUOUS
  2
_FILLED
 10
199.6178253171
 20
271.5351375681
 41
5.0
 42
5.0
 43
5.0
 50
90.0
  0
ENDBLK
  5
38E
100
AcDbEntity
  8
0
  6
BYBLOCK
 62
0
100
AcDbBlockEnd
  0
BLOCK
  5
38F
100
AcDbEntity
  8
0
100
AcDbBlockBegin
 62
2
  6
CONTINUOUS
  2
*D18
 70
65
 10
0.0
 20
0.0
  3
*D18
  1

  0
MTEXT
  5
390
100
AcDbEntity
  8
0
100
AcDbMText
 62
5
  6
CONTINUOUS
  7
STANDARD
 71
2
 72
1
 10
247.7963967456
 20
344.7851375681
 30
0.0
 11
1.0
 21
0.0
 31
0.0
 44
0.9
  1
53.5
 40
3.5714285714
 41
9.693877551
  0
LINE
  5
391
100
AcDbEntity
  8
0
100
AcDbLine
 62
2
  6
CONTINUOUS
 10
274.5463967456
 20
328.177994711
 11
274.5463967456
 21
342.4637089967
  0
LINE
  5
392
100
AcDbEntity
  8
0
100
AcDbLine
 62
2
  6
CONTINUOUS
 10
221.0463967456
 20
328.177994711
 11
221.0463967456
 21
342.4637089967
  0
LINE
  5
393
100
AcDbEntity
  8
0
100
AcDbLine
 62
2
  6
CONTINUOUS
 10
274.5463967456
 20
340.3208518538
 11
247.7963967456
 21
340.3208518538
  0
LINE
  5
394
100
AcDbEntity
  8
0
100
AcDbLine
 62
2
  6
CONTINUOUS
 10
221.0463967456
 20
340.3208518538
 11
247.7963967456
 21
340.3208518538
  0
INSERT
  5
395
100
AcDbEntity
  8
0
100
AcDbBlockReference
 62
2
  6
CONTINUOUS
  2
_FILLED
 10
274.5463967456
 20
340.3208518538
 41
5.0
 42
5.0
 43
5.0
  0
INSERT
  5
396
100
AcDbEntity
  8
0
100
AcDbBlockReference
 62
2
  6
CONTINUOUS
  2
_FILLED
 10
221.0463967456
 20
340.3208518538
 41
5.0
 42
5.0
 43
5.0
 50
180.0
  0
ENDBLK
  5
397
100
AcDbEntity
  8
0
  6
BYBLOCK
 62
0
100
AcDbBlockEnd
  0
BLOCK
  5
398
100
AcDbEntity
  8
0
100
AcDbBlockBegin
 62
2
  6
CONTINUOUS
  2
*D19
 70
65
 10
0.0
 20
0.0
  3
*D19
  1

  0
MTEXT
  5
399
100
AcDbEntity
  8
0
100
AcDbMText
 62
5
  6
CONTINUOUS
  7
STANDARD
 71
3
 72
1
 10
212.7476151575
 20
233.3565661395
 30
0.0
 11
1.0
 21
0.0
 31
0.0
 44
0.9
  1
3.95
 40
3.5714285714
 41
9.9489795918
  0
LINE
  5
39A
100
AcDbEntity
  8
0
100
AcDbLine
 62
2
  6
CONTINUOUS
 10
221.0463967456
 20
244.8715464834
 11
221.0463967456
 21
226.7494232824
  0
LINE
  5
39B
100
AcDbEntity
  8
0
100
AcDbLine
 62
2
  6
CONTINUOUS
 10
224.9963967456
 20
244.8715464834
 11
224.9963967456
 21
226.7494232824
  0
LINE
  5
39C
100
AcDbEntity
  8
0
100
AcDbLine
 62
2
  6
CONTINUOUS
 10
221.0463967456
 20
228.8922804252
 11
202.7986355657
 21
228.8922804252
  0
LINE
  5
39D
100
AcDbEntity
  8
0
100
AcDbLine
 62
2
  6
CONTINUOUS
 10
202.7986355657
 20
228.8922804252
 11
223.0213967456
 21
228.8922804252
  0
LINE
  5
39E
100
AcDbEntity
  8
0
100
AcDbLine
 62
2
  6
CONTINUOUS
 10
224.9963967456
 20
228.8922804252
 11
233.5678253171
 21
228.8922804252
  0
LINE
  5
39F
100
AcDbEntity
  8
0
100
AcDbLine
 62
2
  6
CONTINUOUS
 10
233.5678253171
 20
228.8922804252
 11
223.0213967456
 21
228.8922804252
  0
INSERT
  5
3A0
100
AcDbEntity
  8
0
100
AcDbBlockReference
 62
2
  6
CONTINUOUS
  2
_FILLED
 10
221.0463967456
 20
228.8922804252
 41
5.0
 42
5.0
 43
5.0
  0
INSERT
  5
3A1
100
AcDbEntity
  8
0
100
AcDbBlockReference
 62
2
  6
CONTINUOUS
  2
_FILLED
 10
224.9963967456
 20
228.8922804252
 41
5.0
 42
5.0
 43
5.0
 50
180.0
  0
ENDBLK
  5
3A2
100
AcDbEntity
  8
0
  6
BYBLOCK
 62
0
100
AcDbBlockEnd
  0
BLOCK
  5
3A3
100
AcDbEntity
  8
0
100
AcDbBlockBegin
 62
2
  6
CONTINUOUS
  2
*D20
 70
65
 10
0.0
 20
0.0
  3
*D20
  1

  0
MTEXT
  5
3A4
100
AcDbEntity
  8
0
100
AcDbMText
 62
5
  6
CONTINUOUS
  7
TEXTSTYLE_2
 71
2
 72
1
 10
180.8678253171
 20
280.1639748453
 30
0.0
 11
0.0
 21
1.0
 31
0.0
 44
0.9
  1
{\Fgdt;n}\Ftxt;80
 40
3.5714285714
 41
10.3741496599
  0
LINE
  5
3A5
100
AcDbEntity
  8
0
100
AcDbLine
 62
2
  6
CONTINUOUS
 10
218.9035396028
 20
321.0351375681
 11
183.1892538885
 21
321.0351375681
  0
LINE
  5
3A6
100
AcDbEntity
  8
0
100
AcDbLine
 62
2
  6
CONTINUOUS
 10
218.9035396028
 20
241.0351375681
 11
183.1892538885
 21
241.0351375681
  0
LINE
  5
3A7
100
AcDbEntity
  8
0
100
AcDbLine
 62
2
  6
CONTINUOUS
 10
185.3321110314
 20
321.0351375681
 11
185.3321110314
 21
281.0351375681
  0
LINE
  5
3A8
100
AcDbEntity
  8
0
100
AcDbLine
 62
2
  6
CONTINUOUS
 10
185.3321110314
 20
241.0351375681
 11
185.3321110314
 21
281.0351375681
  0
INSERT
  5
3A9
100
AcDbEntity
  8
0
100
AcDbBlockReference
 62
2
  6
CONTINUOUS
  2
_FILLED
 10
185.3321110314
 20
321.0351375681
 41
5.0
 42
5.0
 43
5.0
 50
90.0
  0
INSERT
  5
3AA
100
AcDbEntity
  8
0
100
AcDbBlockReference
 62
2
  6
CONTINUOUS
  2
_FILLED
 10
185.3321110314
 20
241.0351375681
 41
5.0
 42
5.0
 43
5.0
 50
270.0
  0
ENDBLK
  5
3AB
100
AcDbEntity
  8
0
  6
BYBLOCK
 62
0
100
AcDbBlockEnd
  0
BLOCK
  5
3AC
100
AcDbEntity
  8
0
100
AcDbBlockBegin
 62
2
  6
CONTINUOUS
  2
*D21
 70
65
 10
0.0
 20
0.0
  3
*D21
  1

  0
MTEXT
  5
3AD
100
AcDbEntity
  8
0
100
AcDbMText
 62
5
  6
CONTINUOUS
  7
STANDARD
 71
3
 72
1
 10
457.8652522081
 20
314.6660102961
 30
0.0
 11
0.8977217791
 21
-0.4405628302
 31
0.0
 44
0.9
  1
     \Fgdt;{\Fgdt;n}\Ftxt;100
 40
3.5714285714
 41
26.4455782313
  0
LINE
  5
3AE
100
AcDbEntity
  8
0
100
AcDbLine
 62
2
  6
CONTINUOUS
 10
471.3746506186
 20
303.0632790773
 11
516.2607395733
 21
281.0351375681
  0
LINE
  5
3AF
100
AcDbEntity
  8
0
100
AcDbLine
 62
2
  6
CONTINUOUS
 10
516.2607395733
 20
281.0351375681
 11
432.1576823201
 21
322.3092625737
  0
LINE
  5
3B0
100
AcDbEntity
  8
0
100
AcDbLine
 62
2
  6
CONTINUOUS
 10
561.1468285281
 20
259.0069960589
 11
516.2607395733
 21
281.0351375681
  0
INSERT
  5
3B1
100
AcDbEntity
  8
0
100
AcDbBlockReference
 62
2
  6
CONTINUOUS
  2
_FILLED
 10
471.3746506186
 20
303.0632790773
 41
5.0
 42
5.0
 43
5.0
 50
153.8602025716
  0
INSERT
  5
3B2
100
AcDbEntity
  8
0
100
AcDbBlockReference
 62
2
  6
CONTINUOUS
  2
_FILLED
 10
561.1468285281
 20
259.0069960589
 41
5.0
 42
5.0
 43
5.0
 50
333.8602025716
  0
ENDBLK
  5
3B3
100
AcDbEntity
  8
0
  6
BYBLOCK
 62
0
100
AcDbBlockEnd
  0
BLOCK
  5
3B4
100
AcDbEntity
  8
0
100
AcDbBlockBegin
 62
2
  6
CONTINUOUS
  2
*D22
 70
65
 10
0.0
 20
0.0
  3
*D22
  1

  0
MTEXT
  5
3B5
100
AcDbEntity
  8
0
100
AcDbMText
 62
5
  6
CONTINUOUS
  7
STANDARD
 71
3
 72
1
 10
513.6851335153
 20
349.2851375681
 30
0.0
 11
1.0
 21
0.0
 31
0.0
 44
0.9
  1
M6
 40
3.5714285714
 41
5.8673469388
  0
LINE
  5
3B6
100
AcDbEntity
  8
0
100
AcDbLine
 62
2
  6
CONTINUOUS
 10
548.6161537496
 20
316.9026450824
 11
548.6205637861
 21
346.9585830269
  0
LINE
  5
3B7
100
AcDbEntity
  8
0
100
AcDbLine
 62
2
  6
CONTINUOUS
 10
554.6161539404
 20
316.9035052737
 11
554.6205637215
 21
346.9577026612
  0
LINE
  5
3B8
100
AcDbEntity
  8
0
100
AcDbLine
 62
2
  6
CONTINUOUS
 10
548.6202493698
 20
344.8157259071
 11
507.8177865765
 21
344.8208518538
  0
LINE
  5
3B9
100
AcDbEntity
  8
0
100
AcDbLine
 62
2
  6
CONTINUOUS
 10
507.8177865765
 20
344.8208518538
 11
551.6202493375
 21
344.8152857243
  0
LINE
  5
3BA
100
AcDbEntity
  8
0
100
AcDbLine
 62
2
  6
CONTINUOUS
 10
554.6202493052
 20
344.8148455414
 11
563.1916777843
 21
344.813587876
  0
LINE
  5
3BB
100
AcDbEntity
  8
0
100
AcDbLine
 62
2
  6
CONTINUOUS
 10
563.1916777843
 20
344.813587876
 11
551.6202493375
 21
344.8152857243
  0
INSERT
  5
3BC
100
AcDbEntity
  8
0
100
AcDbBlockReference
 62
2
  6
CONTINUOUS
  2
_FILLED
 10
548.6202493698
 20
344.8157259071
 41
5.0
 42
5.0
 43
5.0
 50
359.9928020249
  0
INSERT
  5
3BD
100
AcDbEntity
  8
0
100
AcDbBlockReference
 62
2
  6
CONTINUOUS
  2
_FILLED
 10
554.6202493052
 20
344.8148455414
 41
5.0
 42
5.0
 43
5.0
 50
179.9915931262
  0
ENDBLK
  5
3BE
100
AcDbEntity
  8
0
  6
BYBLOCK
 62
0
100
AcDbBlockEnd
  0
BLOCK
  5
3BF
100
AcDbEntity
  8
0
100
AcDbBlockBegin
 62
2
  6
CONTINUOUS
  2
*D23
 70
65
 10
0.0
 20
0.0
  3
*D23
  1

  0
MTEXT
  5
3C0
100
AcDbEntity
  8
0
100
AcDbMText
 62
5
  6
CONTINUOUS
  7
TEXTSTYLE_2
 71
2
 72
1
 10
516.1535968152
 20
358.7851375681
 30
0.0
 11
1.0
 21
0.0
 31
0.0
 44
0.9
  1
{\Fgdt;o}\Ftxt;90
 40
3.5714285714
 41
10.5229591837
  0
LINE
  5
3C1
100
AcDbEntity
  8
0
100
AcDbLine
 62
2
  6
CONTINUOUS
 10
561.2607395733
 20
280.6352244343
 11
561.2607395733
 21
356.4637089967
  0
LINE
  5
3C2
100
AcDbEntity
  8
0
100
AcDbLine
 62
2
  6
CONTINUOUS
 10
471.2607395733
 20
280.6352244343
 11
471.2607395733
 21
356.4637089967
  0
LINE
  5
3C3
100
AcDbEntity
  8
0
100
AcDbLine
 62
2
  6
CONTINUOUS
 10
561.2607395733
 20
354.3208518538
 11
516.2607395733
 21
354.3208518538
  0
LINE
  5
3C4
100
AcDbEntity
  8
0
100
AcDbLine
 62
2
  6
CONTINUOUS
 10
471.2607395733
 20
354.3208518538
 11
516.2607395733
 21
354.3208518538
  0
INSERT
  5
3C5
100
AcDbEntity
  8
0
100
AcDbBlockReference
 62
2
  6
CONTINUOUS
  2
_FILLED
 10
561.2607395733
 20
354.3208518538
 41
5.0
 42
5.0
 43
5.0
  0
INSERT
  5
3C6
100
AcDbEntity
  8
0
100
AcDbBlockReference
 62
2
  6
CONTINUOUS
  2
_FILLED
 10
471.2607395733
 20
354.3208518538
 41
5.0
 42
5.0
 43
5.0
 50
180.0
  0
ENDBLK
  5
3C7
100
AcDbEntity
  8
0
  6
BYBLOCK
 62
0
100
AcDbBlockEnd
  0
BLOCK
  5
3C8
100
AcDbEntity
  8
ZEICHNUNGSBEMASSUNGEN
100
AcDbBlockBegin
 62
2
  6
CONTINUOUS
  2
*D24
 70
65
 10
0.0
 20
0.0
  3
*D24
  1

  0
MTEXT
  5
3C9
100
AcDbEntity
  8
ZEICHNUNGSBEMASSUNGEN
100
AcDbMText
 62
5
  6
CONTINUOUS
  7
STANDARD
 71
2
 72
1
 10
289.660336185
 20
387.3565661395
 30
0.0
 11
1.0
 21
0.0
 31
0.0
 44
0.9
  1
146.5
 40
3.5714285714
 41
12.2448979592
  0
LINE
  5
3CA
100
AcDbEntity
  8
ZEICHNUNGSBEMASSUNGEN
100
AcDbLine
 62
2
  6
CONTINUOUS
 10
221.0463967456
 20
318.9725473692
 11
221.0463967456
 21
385.0351375681
  0
LINE
  5
3CB
100
AcDbEntity
  8
ZEICHNUNGSBEMASSUNGEN
100
AcDbLine
 62
2
  6
CONTINUOUS
 10
367.5463967456
 20
313.6779933444
 11
367.5463967456
 21
324.1433437625
  0
LINE
  5
3CC
100
AcDbEntity
  8
ZEICHNUNGSBEMASSUNGEN
100
AcDbLine
 62
2
  6
CONTINUOUS
 10
367.5463967456
 20
332.6874479107
 11
367.5463967456
 21
385.0351375681
  0
LINE
  5
3CD
100
AcDbEntity
  8
ZEICHNUNGSBEMASSUNGEN
100
AcDbLine
 62
2
  6
CONTINUOUS
 10
221.0463967456
 20
382.8922804252
 11
294.2963967456
 21
382.8922804252
  0
LINE
  5
3CE
100
AcDbEntity
  8
ZEICHNUNGSBEMASSUNGEN
100
AcDbLine
 62
2
  6
CONTINUOUS
 10
367.5463967456
 20
382.8922804252
 11
294.2963967456
 21
382.8922804252
  0
INSERT
  5
3CF
100
AcDbEntity
  8
ZEICHNUNGSBEMASSUNGEN
100
AcDbBlockReference
 62
2
  6
CONTINUOUS
  2
_FILLED
 10
221.0463967456
 20
382.8922804252
 41
5.0
 42
5.0
 43
5.0
 50
180.0
  0
INSERT
  5
3D0
100
AcDbEntity
  8
ZEICHNUNGSBEMASSUNGEN
100
AcDbBlockReference
 62
2
  6
CONTINUOUS
  2
_FILLED
 10
367.5463967456
 20
382.8922804252
 41
5.0
 42
5.0
 43
5.0
  0
ENDBLK
  5
3D1
100
AcDbEntity
  8
0
  6
BYBLOCK
 62
0
100
AcDbBlockEnd
  0
BLOCK
  5
3D2
100
AcDbEntity
  8
ZEICHNUNGSBEMASSUNGEN
100
AcDbBlockBegin
 62
2
  6
CONTINUOUS
  2
*D25
 70
65
 10
0.0
 20
0.0
  3
*D25
  1

  0
MTEXT
  5
3D3
100
AcDbEntity
  8
ZEICHNUNGSBEMASSUNGEN
100
AcDbMText
 62
5
  6
CONTINUOUS
  7
TEXTSTYLE_2
 71
3
 72
1
 10
460.565651072
 20
231.7844317081
 30
0.0
 11
0.7071067812
 21
0.7071067812
 31
0.0
 44
0.9
  1
{\Fgdt;n}\Ftxt;115
 40
3.5714285714
 41
11.3945578231
  0
LINE
  5
3D4
100
AcDbEntity
  8
ZEICHNUNGSBEMASSUNGEN
100
AcDbLine
 62
2
  6
CONTINUOUS
 10
555.4041506747
 20
323.2090063032
 11
555.3386860558
 21
323.2744709221
  0
LINE
  5
3D5
100
AcDbEntity
  8
ZEICHNUNGSBEMASSUNGEN
100
AcDbLine
 62
2
  6
CONTINUOUS
 10
474.0868708383
 20
241.8917264667
 11
474.0214062193
 21
241.9571910857
  0
LINE
  5
3D6
100
AcDbEntity
  8
ZEICHNUNGSBEMASSUNGEN
100
AcDbLine
 62
2
  6
CONTINUOUS
 10
556.8539148726
 20
321.7592421053
 11
516.1952749544
 21
281.1006021871
  0
LINE
  5
3D7
100
AcDbEntity
  8
ZEICHNUNGSBEMASSUNGEN
100
AcDbLine
 62
2
  6
CONTINUOUS
 10
475.5366350361
 20
240.4419622689
 11
516.1952749544
 21
281.1006021871
  0
LINE
  5
3D8
100
AcDbEntity
  8
ZEICHNUNGSBEMASSUNGEN
100
AcDbLine
 62
2
  6
CONTINUOUS
 10
516.1952749544
 20
281.1006021871
 11
455.6652086683
 21
220.5705359011
  0
INSERT
  5
3D9
100
AcDbEntity
  8
ZEICHNUNGSBEMASSUNGEN
100
AcDbBlockReference
 62
2
  6
CONTINUOUS
  2
_FILLED
 10
556.8539148726
 20
321.7592421053
 41
5.0
 42
5.0
 43
5.0
 50
45.0
  0
INSERT
  5
3DA
100
AcDbEntity
  8
ZEICHNUNGSBEMASSUNGEN
100
AcDbBlockReference
 62
2
  6
CONTINUOUS
  2
_FILLED
 10
475.5366350361
 20
240.4419622689
 41
5.0
 42
5.0
 43
5.0
 50
225.0
  0
ENDBLK
  5
3DB
100
AcDbEntity
  8
0
  6
BYBLOCK
 62
0
100
AcDbBlockEnd
  0
BLOCK
  5
3DC
100
AcDbEntity
  8
ZEICHNUNGSBEMASSUNGEN
100
AcDbBlockBegin
 62
2
  6
CONTINUOUS
  2
*D26
 70
65
 10
0.0
 20
0.0
  3
*D26
  1

  0
MTEXT
  5
3DD
100
AcDbEntity
  8
ZEICHNUNGSBEMASSUNGEN
100
AcDbMText
 62
5
  6
CONTINUOUS
  7
STANDARD
 71
2
 72
1
 10
250.0463967456
 20
226.2137089967
 30
0.0
 11
1.0
 21
0.0
 31
0.0
 44
0.9
  1
58
 40
3.5714285714
 41
5.3571428571
  0
LINE
  5
3DE
100
AcDbEntity
  8
ZEICHNUNGSBEMASSUNGEN
100
AcDbLine
 62
2
  6
CONTINUOUS
 10
221.0463967456
 20
243.0977277671
 11
221.0463967456
 21
219.6065661395
  0
LINE
  5
3DF
100
AcDbEntity
  8
ZEICHNUNGSBEMASSUNGEN
100
AcDbLine
 62
2
  6
CONTINUOUS
 10
279.0463967456
 20
269.3922804252
 11
279.0463967456
 21
219.6065661395
  0
LINE
  5
3E0
100
AcDbEntity
  8
ZEICHNUNGSBEMASSUNGEN
100
AcDbLine
 62
2
  6
CONTINUOUS
 10
221.0463967456
 20
221.7494232824
 11
250.0463967456
 21
221.7494232824
  0
LINE
  5
3E1
100
AcDbEntity
  8
ZEICHNUNGSBEMASSUNGEN
100
AcDbLine
 62
2
  6
CONTINUOUS
 10
279.0463967456
 20
221.7494232824
 11
250.0463967456
 21
221.7494232824
  0
INSERT
  5
3E2
100
AcDbEntity
  8
ZEICHNUNGSBEMASSUNGEN
100
AcDbBlockReference
 62
2
  6
CONTINUOUS
  2
_FILLED
 10
221.0463967456
 20
221.7494232824
 41
5.0
 42
5.0
 43
5.0
 50
180.0
  0
INSERT
  5
3E3
100
AcDbEntity
  8
ZEICHNUNGSBEMASSUNGEN
100
AcDbBlockReference
 62
2
  6
CONTINUOUS
  2
_FILLED
 10
279.0463967456
 20
221.7494232824
 41
5.0
 42
5.0
 43
5.0
  0
ENDBLK
  5
3E4
100
AcDbEntity
  8
0
  6
BYBLOCK
 62
0
100
AcDbBlockEnd
  0
BLOCK
  5
3E5
100
AcDbEntity
  8
0
100
AcDbBlockBegin
 62
2
  6
CONTINUOUS
  2
*D27
 70
65
 10
0.0
 20
0.0
  3
*D27
  1

  0
MTEXT
  5
3E6
100
AcDbEntity
  8
0
100
AcDbMText
 62
5
  6
CONTINUOUS
  7
STANDARD
 71
2
 72
1
 10
312.2963967456
 20
369.4994232824
 30
0.0
 11
1.0
 21
0.0
 31
0.0
 44
0.9
  1
50.5
 40
3.5714285714
 41
9.9489795918
  0
LINE
  5
3E7
100
AcDbEntity
  8
0
100
AcDbLine
 62
2
  6
CONTINUOUS
 10
287.0463967456
 20
278.4488667429
 11
287.0463967456
 21
367.177994711
  0
LINE
  5
3E8
100
AcDbEntity
  8
0
100
AcDbLine
 62
2
  6
CONTINUOUS
 10
337.5463967456
 20
277.7295691819
 11
337.5463967456
 21
367.177994711
  0
LINE
  5
3E9
100
AcDbEntity
  8
0
100
AcDbLine
 62
2
  6
CONTINUOUS
 10
287.0463967456
 20
365.0351375681
 11
312.2963967456
 21
365.0351375681
  0
LINE
  5
3EA
100
AcDbEntity
  8
0
100
AcDbLine
 62
2
  6
CONTINUOUS
 10
337.5463967456
 20
365.0351375681
 11
312.2963967456
 21
365.0351375681
  0
INSERT
  5
3EB
100
AcDbEntity
  8
0
100
AcDbBlockReference
 62
2
  6
CONTINUOUS
  2
_FILLED
 10
287.0463967456
 20
365.0351375681
 41
5.0
 42
5.0
 43
5.0
 50
180.0
  0
INSERT
  5
3EC
100
AcDbEntity
  8
0
100
AcDbBlockReference
 62
2
  6
CONTINUOUS
  2
_FILLED
 10
337.5463967456
 20
365.0351375681
 41
5.0
 42
5.0
 43
5.0
  0
ENDBLK
  5
3ED
100
AcDbEntity
  8
0
  6
BYBLOCK
 62
0
100
AcDbBlockEnd
  0
BLOCK
  5
3EE
100
AcDbEntity
  8
0
100
AcDbBlockBegin
 62
2
  6
CONTINUOUS
  2
*D28
 70
65
 10
0.0
 20
0.0
  3
*D28
  1

  0
MTEXT
  5
3EF
100
AcDbEntity
  8
0
100
AcDbMText
 62
5
  6
CONTINUOUS
  7
STANDARD
 71
2
 72
1
 10
254.0463967456
 20
351.927994711
 30
0.0
 11
1.0
 21
0.0
 31
0.0
 44
0.9
  1
66
 40
3.5714285714
 41
5.612244898
  0
LINE
  5
3F0
100
AcDbEntity
  8
0
100
AcDbLine
 62
2
  6
CONTINUOUS
 10
287.0463967456
 20
277.3472625282
 11
287.0463967456
 21
349.6065661395
  0
LINE
  5
3F1
100
AcDbEntity
  8
0
100
AcDbLine
 62
2
  6
CONTINUOUS
 10
221.0463967456
 20
269.5746479522
 11
221.0463967456
 21
349.6065661395
  0
LINE
  5
3F2
100
AcDbEntity
  8
0
100
AcDbLine
 62
2
  6
CONTINUOUS
 10
287.0463967456
 20
347.4637089967
 11
254.0463967456
 21
347.4637089967
  0
LINE
  5
3F3
100
AcDbEntity
  8
0
100
AcDbLine
 62
2
  6
CONTINUOUS
 10
221.0463967456
 20
347.4637089967
 11
254.0463967456
 21
347.4637089967
  0
INSERT
  5
3F4
100
AcDbEntity
  8
0
100
AcDbBlockReference
 62
2
  6
CONTINUOUS
  2
_FILLED
 10
287.0463967456
 20
347.4637089967
 41
5.0
 42
5.0
 43
5.0
  0
INSERT
  5
3F5
100
AcDbEntity
  8
0
100
AcDbBlockReference
 62
2
  6
CONTINUOUS
  2
_FILLED
 10
221.0463967456
 20
347.4637089967
 41
5.0
 42
5.0
 43
5.0
 50
180.0
  0
ENDBLK
  5
3F6
100
AcDbEntity
  8
0
  6
BYBLOCK
 62
0
100
AcDbBlockEnd
  0
ENDSEC
  0
SECTION
  2
ENTITIES
  0
DIMENSION
  5
3F7
100
AcDbEntity
  8
0
100
AcDbDimension
 62
2
  6
CONTINUOUS
  2
*D0
 10
388.9937959192
 20
296.7589497624
 11
387.6858771624
 21
273.8360336315
 70
160
 71
2
 42
31.5
  1
%%c<>
  3
DIMSTYLE_1
100
AcDbAlignedDimension
 13
367.5463967456
 23
265.2794041745
 14
367.5463967456
 24
296.7794185199
 50
89.9453186351
100
AcDbRotatedDimension
  0
LEADER
  5
3F8
100
AcDbEntity
  8
0
100
AcDbLeader
 62
2
  6
CONTINUOUS
  3
STANDARD
 71
1
 72
0
 73
2
 75
0
 76
3
 10
385.9788523346
 20
265.2618127891
 30
0.0
 10
386.0758286503
 20
222.0351375681
 30
0.0
 10
388.6288943056
 20
222.0351375681
 30
0.0
340
3F9
1001
ACAD
1000
DSTYLE
1002
{
1070
77
1070
0
1002
}
  0
INSERT
  5
3F9
102
{ACAD_REACTORS
330
3F8
102
}
100
AcDbEntity
  8
0
100
AcDbBlockReference
 62
2
  6
CONTINUOUS
  2
SYMBOL_152_BL0
 10
411.4860313143
 20
221.8285685163
  0
DIMENSION
  5
3FA
100
AcDbEntity
  8
0
100
AcDbDimension
 62
2
  6
CONTINUOUS
  2
*D1
 10
410.4035396028
 20
326.0351375681
 11
408.8870638623
 21
275.4166167754
 70
160
 71
2
 42
90.0
  1
%%c<>
  3
DIMSTYLE_1
100
AcDbAlignedDimension
 13
361.0463967456
 23
236.0351375681
 14
361.0463967456
 24
326.0351375681
 50
90.0
100
AcDbRotatedDimension
  0
INSERT
  5
3FB
100
AcDbEntity
  8
0
100
AcDbBlockReference
 62
2
  6
CONTINUOUS
  2
SYMBOL_143_BL1
 10
410.4035396028
 20
334.9637089967
  0
DIMENSION
  5
3FC
100
AcDbEntity
  8
0
100
AcDbDimension
 62
2
  6
CONTINUOUS
  2
*D2
 10
399.6886263048
 20
312.5357027455
 11
398.1442020245
 21
274.5824587011
 70
160
 71
2
 42
63.0
  1
%%c<>
  3
DIMSTYLE_1
100
AcDbAlignedDimension
 13
368.2367345137
 23
249.5351497018
 14
368.5440593936
 24
312.5351551154
 50
90.0010074597
100
AcDbRotatedDimension
  0
LEADER
  5
3FD
100
AcDbEntity
  8
0
100
AcDbLeader
 62
2
  6
CONTINUOUS
  3
STANDARD
 71
1
 72
0
 73
2
 75
0
 76
3
 10
394.7405090396
 20
312.5356157404
 30
0.0
 10
394.710802306
 20
354.3208518538
 30
0.0
 10
403.3951323015
 20
354.3208518538
 30
0.0
340
3FE
1001
ACAD
1000
DSTYLE
1002
{
1070
77
1070
0
1002
}
  0
INSERT
  5
3FE
102
{ACAD_REACTORS
330
3FD
102
}
100
AcDbEntity
  8
0
100
AcDbBlockReference
 62
2
  6
CONTINUOUS
  2
SYMBOL_115_BL2
 10
426.2522693101
 20
354.114282802
  0
DIMENSION
  5
3FF
100
AcDbEntity
  8
0
100
AcDbDimension
 62
2
  6
CONTINUOUS
  2
*D3
 10
327.6892538885
 20
340.0351375681
 11
327.6206350709
 21
206.7172148252
 70
160
 71
3
 42
118.0
  1
%%c<>
  3
DIMSTYLE_1
100
AcDbAlignedDimension
 13
330.5463967456
 23
222.0351375681
 14
330.5463967456
 24
340.0351375681
 50
90.0
100
AcDbRotatedDimension
  0
DIMENSION
  5
400
100
AcDbEntity
  8
0
100
AcDbDimension
 62
2
  6
CONTINUOUS
  2
*D4
 10
319.1178253171
 20
326.0351375681
 11
318.7634452647
 21
207.9251208607
 70
160
 71
3
 42
90.0
  1
%%c<>
  3
DIMSTYLE_1
100
AcDbAlignedDimension
 13
327.6892538885
 23
236.0351375681
 14
327.6892538885
 24
326.0351375681
 50
90.0
100
AcDbRotatedDimension
  0
DIMENSION
  5
401
100
AcDbEntity
  8
0
100
AcDbDimension
 62
2
  6
CONTINUOUS
  2
*D5
 10
337.5463967456
 20
375.7494232824
 11
349.8678253171
 21
378.427994711
 70
160
 71
2
 42
30.0
  3
DIMSTYLE_2
100
AcDbAlignedDimension
 13
367.5463967456
 23
314.677994711
 14
337.5463967456
 24
342.177994711
 50
180.0
100
AcDbRotatedDimension
  0
LEADER
  5
402
100
AcDbEntity
  8
0
100
AcDbLeader
 62
2
  6
CONTINUOUS
  3
STANDARD
 71
1
 72
0
 73
2
 75
0
 76
3
 10
367.5463967456
 20
372.999582797
 30
0.0
 10
403.2055626468
 20
372.8922804252
 30
0.0
 10
403.2056227068
 20
372.8922804252
 30
0.0
340
403
1001
ACAD
1000
DSTYLE
1002
{
1070
77
1070
0
1002
}
  0
INSERT
  5
403
102
{ACAD_REACTORS
330
402
102
}
100
AcDbEntity
  8
0
100
AcDbBlockReference
 62
2
  6
CONTINUOUS
  2
SYMBOL_179_BL3
 10
426.0627597154
 20
372.6857113735
  0
DIMENSION
  5
404
100
AcDbEntity
  8
0
100
AcDbDimension
 62
2
  6
CONTINUOUS
  2
*D6
 10
330.5463967456
 20
347.177994711
 11
317.3681283665
 21
349.8565661395
 70
160
 71
3
 42
7.0
  3
DIMSTYLE_2
100
AcDbAlignedDimension
 13
337.5463967456
 23
342.177994711
 14
330.5463967456
 24
342.177994711
 50
180.0
100
AcDbRotatedDimension
  0
DIMENSION
  5
405
100
AcDbEntity
  8
0
100
AcDbDimension
 62
2
  6
CONTINUOUS
  2
*D7
 10
337.5463967456
 20
354.3208518538
 11
319.38322586
 21
356.9994232824
 70
160
 71
3
 42
12.0
  3
DIMSTYLE_2
100
AcDbAlignedDimension
 13
349.5463967456
 23
328.177994711
 14
337.5463967456
 24
328.177994711
 50
180.0
100
AcDbRotatedDimension
  0
DIMENSION
  5
406
100
AcDbEntity
  8
0
100
AcDbDimension
 62
2
  6
CONTINUOUS
  2
*D8
 10
376.5351440458
 20
323.6739281366
 11
367.03733699
 21
318.7302243509
 70
162
 71
2
 42
0.0872664626
  3
DIMSTYLE_3
100
AcDb2LineAngularDimension
 13
376.638236676
 23
326.0351375681
 14
361.0463967456
 24
326.0351375681
 15
361.0463967456
 25
325.0290179376
 16
374.4716336298
 26
324.9468782235
  0
DIMENSION
  5
407
100
AcDbEntity
  8
0
100
AcDbDimension
 62
2
  6
CONTINUOUS
  2
*D9
 10
361.5463967456
 20
357.8922804252
 11
377.5571193052
 21
360.5708518538
 70
160
 71
1
 42
6.0
  3
DIMSTYLE_4
100
AcDbAlignedDimension
 13
367.5463967456
 23
314.2754653939
 14
361.5463967456
 24
314.1184616653
 50
180.0
100
AcDbRotatedDimension
  0
DIMENSION
  5
408
100
AcDbEntity
  8
0
100
AcDbDimension
 62
2
  6
CONTINUOUS
  2
*D10
 10
361.5463967456
 20
269.5746479522
 11
377.6060442107
 21
272.2532193808
 70
160
 71
1
 42
6.0
  3
DIMSTYLE_4
100
AcDbAlignedDimension
 13
367.5463967456
 23
274.9849893249
 14
361.5463967456
 24
274.9819528261
 50
180.0
100
AcDbRotatedDimension
  0
DIMENSION
  5
409
100
AcDbEntity
  8
0
100
AcDbDimension
 62
2
  6
CONTINUOUS
  2
*D11
 10
337.5463967456
 20
365.0351375681
 11
344.9749792804
 21
367.7137089967
 70
160
 71
2
 42
23.5
  3
DIMSTYLE_2
100
AcDbAlignedDimension
 13
361.0463967456
 23
327.1718750804
 14
337.5463967456
 24
342.177994711
 50
180.0
100
AcDbRotatedDimension
  0
DIMENSION
  5
40A
100
AcDbEntity
  8
0
100
AcDbDimension
 62
2
  6
CONTINUOUS
  2
*D12
 10
109.3167788984
 20
365.473673228
 11
85.1348561986
 21
368.1422804252
 70
160
 71
3
 42
5.5
  1
%%c<>
  3
DIMSTYLE_5
100
AcDbAlignedDimension
 13
103.8411409686
 23
335.4543688311
 14
109.3411457501
 24
335.4507093084
 50
0.0465016532
100
AcDbRotatedDimension
  0
LEADER
  5
40B
100
AcDbEntity
  8
0
100
AcDbLeader
 62
2
  6
CONTINUOUS
  3
STANDARD
 71
1
 72
0
 73
2
 75
0
 76
3
 10
109.3167788984
 20
365.473673228
 30
0.0
 10
120.0465897488
 20
365.4637089967
 30
0.0
 10
120.0466498088
 20
365.4637089967
 30
0.0
340
40C
1001
ACAD
1000
DSTYLE
1002
{
1070
77
1070
0
1070
341
1005
21C
1002
}
  0
INSERT
  5
40C
102
{ACAD_REACTORS
330
40B
102
}
100
AcDbEntity
  8
0
100
AcDbBlockReference
 62
2
  6
CONTINUOUS
  2
SYMBOL_104_BL4
 10
140.7609355231
 20
365.4269501402
  0
DIMENSION
  5
40D
100
AcDbEntity
  8
0
100
AcDbDimension
 62
2
  6
CONTINUOUS
  2
*D13
 10
61.1812655558
 20
250.8987959488
 11
48.5457515877
 21
240.4210704843
 70
163
 71
3
 42
109.0
  1
     %%c<>
  3
DIMSTYLE_6
100
AcDbDiametricDimension
 15
152.0008870878
 25
311.1714791874
  0
DIMENSION
  5
40E
100
AcDbEntity
  8
0
100
AcDbDimension
 62
2
  6
CONTINUOUS
  2
*D14
 10
82.4442462629
 20
274.559753556
 11
42.8686704217
 21
264.2827969376
 70
163
 71
3
 42
50.0
  1
     %%c<>
  3
DIMSTYLE_6
100
AcDbDiametricDimension
 15
130.7379063808
 25
287.5105215802
  0
DIMENSION
  5
40F
100
AcDbEntity
  8
0
100
AcDbDimension
 62
2
  6
CONTINUOUS
  2
*D15
 10
51.8245194985
 20
335.8016943914
 11
78.1142266483
 21
356.717370211
 70
162
 71
2
 42
0.7853981634
  1
8x<>
  3
DIMSTYLE_7
100
AcDb2LineAngularDimension
 13
106.5910763218
 23
358.4867449921
 14
106.5910763218
 24
283.177994711
 15
105.075847505
 25
282.5503663849
 16
77.7716652771
 26
350.6113505718
  0
DIMENSION
  5
410
100
AcDbEntity
  8
0
100
AcDbDimension
 62
2
  6
CONTINUOUS
  2
*D16
 10
121.2072542974
 20
209.4974003794
 11
79.0409995763
 21
212.4125313125
 70
160
 71
3
 42
6.0
  1
M<>
  3
DIMSTYLE_5
100
AcDbAlignedDimension
 13
127.2662974951
 23
261.2111873302
 14
121.2663014052
 24
261.2180372539
 50
179.9345880329
100
AcDbRotatedDimension
  0
LEADER
  5
411
100
AcDbEntity
  8
0
100
AcDbLeader
 62
2
  6
CONTINUOUS
  3
STANDARD
 71
1
 72
0
 73
2
 75
0
 76
3
 10
127.2072503873
 20
209.4905504557
 30
0.0
 10
143.5542751821
 20
209.5388518538
 30
0.0
 10
143.5543352421
 20
209.5388518538
 30
0.0
340
412
1001
ACAD
1000
DSTYLE
1002
{
1070
77
1070
0
1070
341
1005
21C
1002
}
  0
INSERT
  5
412
102
{ACAD_REACTORS
330
411
102
}
100
AcDbEntity
  8
0
100
AcDbBlockReference
 62
2
  6
CONTINUOUS
  2
SYMBOL_163_BL5
 10
164.2686209564
 20
209.5020929973
  0
DIMENSION
  5
413
100
AcDbEntity
  8
0
100
AcDbDimension
 62
2
  6
CONTINUOUS
  2
*D17
 10
199.6178253171
 20
271.5351375681
 11
199.0919885238
 21
257.7974864977
 70
160
 71
3
 42
19.0
  1
%%c<>
  3
DIMSTYLE_2
100
AcDbAlignedDimension
 13
250.9035396028
 23
290.5351375681
 14
250.9035396028
 24
271.5351375681
 50
270.0
100
AcDbRotatedDimension
  0
DIMENSION
  5
414
100
AcDbEntity
  8
0
100
AcDbDimension
 62
2
  6
CONTINUOUS
  2
*D18
 10
221.0463967456
 20
340.3208518538
 11
242.9494579701
 21
342.9994232824
 70
160
 71
2
 42
53.5
  3
DIMSTYLE_8
100
AcDbAlignedDimension
 13
274.5463967456
 23
328.177994711
 14
221.0463967456
 24
328.177994711
 50
180.0
100
AcDbRotatedDimension
  0
DIMENSION
  5
415
100
AcDbEntity
  8
0
100
AcDbDimension
 62
2
  6
CONTINUOUS
  2
*D19
 10
224.9963967456
 20
228.8922804252
 11
197.8241457698
 21
231.5708518538
 70
160
 71
3
 42
3.95
  3
DIMSTYLE_5
100
AcDbAlignedDimension
 13
221.0463967456
 23
244.8715464834
 14
224.9963967456
 24
244.8715464834
100
AcDbRotatedDimension
  0
DIMENSION
  5
416
100
AcDbEntity
  8
0
100
AcDbDimension
 62
2
  6
CONTINUOUS
  2
*D20
 10
185.3321110314
 20
241.0351375681
 11
183.8156352909
 21
277.8453610494
 70
160
 71
2
 42
80.0
  1
%%c<>
  3
DIMSTYLE_1
100
AcDbAlignedDimension
 13
218.9035396028
 23
321.0351375681
 14
218.9035396028
 24
241.0351375681
 50
270.0
100
AcDbRotatedDimension
  0
DIMENSION
  5
417
100
AcDbEntity
  8
0
100
AcDbDimension
 62
2
  6
CONTINUOUS
  2
*D21
 10
471.3746506186
 20
303.0632790773
 11
448.188963479
 21
321.2176084017
 70
163
 71
3
 42
100.0
  1
     <>
  3
DIMSTYLE_6
100
AcDbDiametricDimension
 15
561.1468285281
 25
259.0069960589
  0
DIMENSION
  5
418
100
AcDbEntity
  8
0
100
AcDbDimension
 62
2
  6
CONTINUOUS
  2
*D22
 10
554.6202493052
 20
344.8148455414
 11
507.8177865765
 21
347.4994232824
 70
160
 71
3
 42
6.0
  1
M<>
  3
DIMSTYLE_5
100
AcDbAlignedDimension
 13
548.6161537496
 23
316.9026450824
 14
554.6161539404
 24
316.9035052737
 50
359.9915931262
100
AcDbRotatedDimension
  0
DIMENSION
  5
419
100
AcDbEntity
  8
0
100
AcDbDimension
 62
2
  6
CONTINUOUS
  2
*D23
 10
471.2607395733
 20
354.3208518538
 11
513.5228570193
 21
356.9994232824
 70
160
 71
2
 42
90.0
  1
{\Fgdt;o}<>
  3
DIMSTYLE_1
100
AcDbAlignedDimension
 13
561.2607395733
 23
280.6352244343
 14
471.2607395733
 24
280.6352244343
 50
180.0
100
AcDbRotatedDimension
  0
DIMENSION
  5
41A
100
AcDbEntity
  8
ZEICHNUNGSBEMASSUNGEN
100
AcDbDimension
 62
2
  6
CONTINUOUS
  2
*D24
 10
367.5463967456
 20
382.8922804252
 11
283.5378872054
 21
385.5708518538
 70
160
 71
2
 42
146.5
  3
DIMSTYLE_9
100
AcDbAlignedDimension
 13
221.0463967456
 23
318.9725473692
 14
367.5463967456
 24
313.6779933444
100
AcDbRotatedDimension
  0
DIMENSION
  5
41B
100
AcDbEntity
  8
ZEICHNUNGSBEMASSUNGEN
100
AcDbDimension
 62
2
  6
CONTINUOUS
  2
*D25
 10
475.5366350361
 20
240.4419622689
 11
454.8068513113
 21
221.6453217687
 70
160
 71
3
 42
115.0
  1
%%c<>
  3
DIMSTYLE_8
100
AcDbAlignedDimension
 13
555.3386860558
 23
323.2744709221
 14
474.0214062193
 24
241.9571910857
 50
225.0
100
AcDbRotatedDimension
  0
DIMENSION
  5
41C
100
AcDbEntity
  8
ZEICHNUNGSBEMASSUNGEN
100
AcDbDimension
 62
2
  6
CONTINUOUS
  2
*D26
 10
279.0463967456
 20
221.7494232824
 11
247.3678253171
 21
224.427994711
 70
160
 71
2
 42
58.0
  3
DIMSTYLE_8
100
AcDbAlignedDimension
 13
221.0463967456
 23
243.0977277671
 14
279.0463967456
 24
269.3922804252
100
AcDbRotatedDimension
  0
DIMENSION
  5
41D
100
AcDbEntity
  8
0
100
AcDbDimension
 62
2
  6
CONTINUOUS
  2
*D27
 10
337.5463967456
 20
365.0351375681
 11
307.3219069497
 21
367.7137089967
 70
160
 71
2
 42
50.5
  3
DIMSTYLE_8
100
AcDbAlignedDimension
 13
287.0463967456
 23
278.4488667429
 14
337.5463967456
 24
277.7295691819
100
AcDbRotatedDimension
  0
DIMENSION
  5
41E
100
AcDbEntity
  8
0
100
AcDbDimension
 62
2
  6
CONTINUOUS
  2
*D28
 10
221.0463967456
 20
347.4637089967
 11
251.2402742967
 21
350.1422804252
 70
160
 71
2
 42
66.0
  3
DIMSTYLE_8
100
AcDbAlignedDimension
 13
287.0463967456
 23
277.3472625282
 14
221.0463967456
 24
269.5746479522
 50
180.0
100
AcDbRotatedDimension
  0
MTEXT
  5
41F
100
AcDbEntity
  8
0
100
AcDbMText
 62
5
  6
CONTINUOUS
  7
STANDARD
 71
1
 72
1
 10
394.8931680882
 20
285.7780336434
 30
0.0
 11
0.0
 21
1.0
 31
0.0
 44
0.9
  1
h7
 40
3.5714285714
 41
5.3571428571
  0
MTEXT
  5
420
100
AcDbEntity
  8
0
100
AcDbMText
 62
5
  6
CONTINUOUS
  7
STANDARD
 71
1
 72
1
 10
405.5694459831
 20
287.4591734718
 30
0.0
 11
0.0
 21
1.0
 31
0.0
 44
0.9
  1
h7
 40
3.5714285714
 41
5.3571428571
  0
MTEXT
  5
421
100
AcDbEntity
  8
0
100
AcDbMText
 62
5
  6
CONTINUOUS
  7
STANDARD
 71
1
 72
1
 10
384.3575894252
 20
285.1227117685
 30
0.0
 11
0.0
 21
1.0
 31
0.0
 44
0.9
  1
H7
 40
3.5714285714
 41
5.612244898
  0
MTEXT
  5
422
100
AcDbEntity
  8
0
100
AcDbMText
 62
5
  6
CONTINUOUS
  7
STANDARD
 71
1
 72
1
 10
418.9382690478
 20
355.7549637933
 30
0.0
 11
1.0
 21
0.0
 31
0.0
 44
0.9
  1
0,03
 40
3.5714285714
 41
10.2040816327
  0
MTEXT
  5
423
100
AcDbEntity
  8
0
100
AcDbMText
 62
5
  6
CONTINUOUS
  7
STANDARD
 71
1
 72
1
 10
368.9062538598
 20
356.8135719696
 30
0.0
 11
1.0
 21
0.0
 31
0.0
 44
0.9
  1
Fitting\Plength
 40
2.8571428571
 41
12.380952381
  0
MTEXT
  5
424
100
AcDbEntity
  8
0
100
AcDbMText
 62
5
  6
CONTINUOUS
  7
STANDARD
 71
1
 72
1
 10
194.5182759521
 20
293.6686471564
 30
0.0
 11
0.0
 21
1.0
 31
0.0
 44
0.9
  1
(for shaft diam. tol. j6/k6)
 40
3.5714285714
 41
66.3265306122
  0
MTEXT
  5
425
100
AcDbEntity
  8
0
100
AcDbMText
 62
5
  6
CONTINUOUS
  7
STANDARD
 71
1
 72
1
 10
404.1218539359
 20
223.6964967339
 30
0.0
 11
1.0
 21
0.0
 31
0.0
 44
0.9
  1
0,03
 40
3.5714285714
 41
10.2040816327
  0
MTEXT
  5
426
100
AcDbEntity
  8
0
100
AcDbMText
 62
5
  6
CONTINUOUS
  7
STANDARD
 71
1
 72
1
 10
418.7750217096
 20
374.677994711
 30
0.0
 11
1.0
 21
0.0
 31
0.0
 44
0.9
  1
0,03
 40
3.5714285714
 41
10.2040816327
  0
MTEXT
  5
427
100
AcDbEntity
  8
0
100
AcDbMText
 62
5
  6
CONTINUOUS
  7
STANDARD
 71
1
 72
1
 10
436.8162904024
 20
374.4793470082
 30
0.0
 11
1.0
 21
0.0
 31
0.0
 44
0.9
  1
A
 40
3.5714285714
 41
3.7414965986
  0
MTEXT
  5
428
100
AcDbEntity
  8
0
100
AcDbMText
 62
5
  6
CONTINUOUS
  7
STANDARD
 71
1
 72
1
 10
444.0308564477
 20
374.5250137718
 30
0.0
 11
1.0
 21
0.0
 31
0.0
 44
0.9
  1
B
 40
3.5714285714
 41
3.4863945578
  0
MTEXT
  5
429
100
AcDbEntity
  8
0
100
AcDbMText
 62
5
  6
CONTINUOUS
  7
STANDARD
 71
1
 72
1
 10
436.7982262511
 20
355.9926014435
 30
0.0
 11
1.0
 21
0.0
 31
0.0
 44
0.9
  1
A
 40
3.5714285714
 41
3.7414965986
  0
MTEXT
  5
42A
100
AcDbEntity
  8
0
100
AcDbMText
 62
5
  6
CONTINUOUS
  7
STANDARD
 71
1
 72
1
 10
444.1980096921
 20
355.9943691892
 30
0.0
 11
1.0
 21
0.0
 31
0.0
 44
0.9
  1
B
 40
3.5714285714
 41
3.4863945578
  0
MTEXT
  5
42B
100
AcDbEntity
  8
0
100
AcDbMText
 62
5
  6
CONTINUOUS
  7
STANDARD
 71
1
 72
1
 10
422.1005132879
 20
223.5474209336
 30
0.0
 11
1.0
 21
0.0
 31
0.0
 44
0.9
  1
A
 40
3.5714285714
 41
3.7414965986
  0
MTEXT
  5
42C
100
AcDbEntity
  8
0
100
AcDbMText
 62
5
  6
CONTINUOUS
  7
STANDARD
 71
1
 72
1
 10
429.3962354329
 20
223.4833106901
 30
0.0
 11
1.0
 21
0.0
 31
0.0
 44
0.9
  1
B
 40
3.5714285714
 41
3.4863945578
  0
MTEXT
  5
42D
100
AcDbEntity
  8
0
100
AcDbMText
 62
5
  6
CONTINUOUS
  7
STANDARD
 71
1
 72
1
 10
409.0090455068
 20
340.7040600667
 30
0.0
 11
1.0
 21
0.0
 31
0.0
 44
0.9
  1
B
 40
3.5714285714
 41
3.4863945578
  0
MTEXT
  5
42E
100
AcDbEntity
  8
0
100
AcDbMText
 62
5
  6
CONTINUOUS
  7
STANDARD
 71
1
 72
1
 10
348.8143196842
 20
228.092732267
 30
0.0
 11
1.0
 21
0.0
 31
0.0
 44
0.9
  1
A
 40
3.5714285714
 41
3.7414965986
  0
MTEXT
  5
42F
100
AcDbEntity
  8
0
100
AcDbMText
 62
5
  6
CONTINUOUS
  7
STANDARD
 71
1
 72
1
 10
19.8924118526
 20
263.4636890533
 30
0.0
 11
0.9659258263
 21
0.2588190451
 31
0.0
 44
0.9
  1
pcd.
 40
3.5714285714
 41
9.4387755102
  0
MTEXT
  5
430
100
AcDbEntity
  8
0
100
AcDbMText
 62
5
  6
CONTINUOUS
  7
STANDARD
 71
1
 72
1
 10
27.5416202724
 20
235.0206300268
 30
0.0
 11
0.8386705679
 21
0.544639035
 31
0.0
 44
0.9
  1
pcd.
 40
3.5714285714
 41
9.4387755102
  0
MTEXT
  5
431
100
AcDbEntity
  8
0
100
AcDbMText
 62
5
  6
CONTINUOUS
  7
STANDARD
 71
1
 72
1
 10
85.0840531246
 20
214.01519835
 30
0.0
 11
1.0
 21
0.0
 31
0.0
 44
0.9
  1
x10 deep
 40
3.5714285714
 41
20.4081632653
  0
MTEXT
  5
432
100
AcDbEntity
  8
0
100
AcDbMText
 62
5
  6
CONTINUOUS
  7
STANDARD
 71
1
 72
1
 10
163.7930884995
 20
211.3077126596
 30
0.0
 11
1.0
 21
0.0
 31
0.0
 44
0.9
  1
0,2
 40
3.5714285714
 41
8.3333333333
  0
MTEXT
  5
433
100
AcDbEntity
  8
0
100
AcDbMText
 62
5
  6
CONTINUOUS
  7
STANDARD
 71
1
 72
1
 10
178.0584854478
 20
211.2593758635
 30
0.0
 11
1.0
 21
0.0
 31
0.0
 44
0.9
  1
B
 40
3.5714285714
 41
3.4863945578
  0
MTEXT
  5
434
100
AcDbEntity
  8
0
100
AcDbMText
 62
5
  6
CONTINUOUS
  7
STANDARD
 71
1
 72
1
 10
138.7252446105
 20
367.1889131334
 30
0.0
 11
1.0
 21
0.0
 31
0.0
 44
0.9
  1
0,25
 40
3.5714285714
 41
10.8843537415
  0
MTEXT
  5
435
100
AcDbEntity
  8
0
100
AcDbMText
 62
5
  6
CONTINUOUS
  7
STANDARD
 71
1
 72
1
 10
155.3218791995
 20
367.2320709871
 30
0.0
 11
1.0
 21
0.0
 31
0.0
 44
0.9
  1
B
 40
3.5714285714
 41
3.4863945578
  0
MTEXT
  5
436
100
AcDbEntity
  8
0
100
AcDbMText
 62
5
  6
CONTINUOUS
  7
STANDARD
 71
1
 72
1
 10
435.3648826283
 20
325.3510409542
 30
0.0
 11
0.8829475929
 21
-0.4694715628
 31
0.0
 44
0.9
  1
pcd.
 40
3.5714285714
 41
9.4387755102
  0
MTEXT
  5
437
100
AcDbEntity
  8
0
100
AcDbMText
 62
5
  6
CONTINUOUS
  7
STANDARD
 71
1
 72
1
 10
516.2769390281
 20
349.1588057175
 30
0.0
 11
1.0
 21
0.0
 31
0.0
 44
0.9
  1
x12 deep
 40
3.5714285714
 41
20.4081632653
  0
INSERT
  5
438
100
AcDbEntity
  8
0
100
AcDbBlockReference
 62
2
  6
CONTINUOUS
  2
SYMBOL_146_BL6
 10
346.4749681742
 20
226.0979372309
  0
LINE
  5
439
100
AcDbEntity
  8
0
100
AcDbLine
 62
2
  6
CONTINUOUS
 10
6.8474462106
 20
417.2100564984
 11
6.8474462106
 21
7.1930598132
  0
LINE
  5
43A
100
AcDbEntity
  8
0
100
AcDbLine
 62
2
  6
CONTINUOUS
 10
6.8474462106
 20
7.1930598132
 11
593.0154400054
 21
7.1930598132
  0
LINE
  5
43B
100
AcDbEntity
  8
0
100
AcDbLine
 62
2
  6
CONTINUOUS
 10
593.0154400054
 20
417.2100564984
 11
6.8474462106
 21
417.2100564984
  0
LINE
  5
43C
100
AcDbEntity
  8
0
100
AcDbLine
 62
2
  6
CONTINUOUS
 10
593.0154400054
 20
7.1930598132
 11
593.0154400054
 21
417.2100564984
  0
LINE
  5
43D
100
AcDbEntity
  8
0
100
AcDbLine
 62
7
  6
CONTINUOUS
 10
221.0463967456
 20
236.0351375681
 11
221.0463967456
 21
326.0351375681
  0
LINE
  5
43E
100
AcDbEntity
  8
KOSMETIKAS_BLATT2_AUSBLENDEN
100
AcDbLine
 62
2
  6
CENTER
 10
224.9963967456
 20
321.0351375681
 11
224.9963967456
 21
241.0351375681
  0
LINE
  5
43F
100
AcDbEntity
  8
0
100
AcDbLine
 62
7
  6
CONTINUOUS
 10
337.5463967456
 20
222.0351375681
 11
330.5463967456
 21
222.0351375681
  0
LINE
  5
440
100
AcDbEntity
  8
0
100
AcDbLine
 62
7
  6
CONTINUOUS
 10
360.1335525016
 20
236.9613936757
 11
349.5463967456
 21
236.0351375681
  0
LINE
  5
441
100
AcDbEntity
  8
0
100
AcDbLine
 62
7
  6
CONTINUOUS
 10
306.4760267288
 20
233.5351375681
 11
301.0463967456
 21
233.5351375681
  0
LINE
  5
442
100
AcDbEntity
  8
0
100
AcDbLine
 62
7
  6
CONTINUOUS
 10
349.5463967456
 20
236.0351375681
 11
337.5463967456
 21
236.0351375681
  0
LINE
  5
443
100
AcDbEntity
  8
0
100
AcDbLine
 62
7
  6
CONTINUOUS
 10
330.5463967456
 20
236.0351375681
 11
310.1463967473
 21
236.0351375681
  0
LINE
  5
444
100
AcDbEntity
  8
0
100
AcDbLine
 62
7
  6
CONTINUOUS
 10
287.0463967456
 20
236.0351375681
 11
221.0463967456
 21
236.0351375681
  0
LINE
  5
445
100
AcDbEntity
  8
0
100
AcDbLine
 62
7
  6
CONTINUOUS
 10
256.428705292
 20
268.8351375681
 11
256.428705292
 21
265.2351375681
  0
LINE
  5
446
100
AcDbEntity
  8
KOSMETIKAS_BLATT2_AUSBLENDEN
100
AcDbLine
 62
2
  6
CENTER
 10
224.9963967456
 20
241.0351375681
 11
221.0463967456
 21
241.0351375681
  0
LINE
  5
447
100
AcDbEntity
  8
BEZUGSACHSEN
100
AcDbLine
 62
2
  6
CENTER
 10
259.5463967456
 20
267.0351375681
 11
259.5463967456
 21
257.4994232824
  0
LINE
  5
448
100
AcDbEntity
  8
BEZUGSACHSEN
100
AcDbLine
 62
2
  6
CENTER
 10
259.5463967456
 20
267.0351375681
 11
259.5463967456
 21
276.5708518538
  0
LINE
  5
449
100
AcDbEntity
  8
0
100
AcDbLine
 62
7
  6
CONTINUOUS
 10
262.6640881993
 20
265.2351375681
 11
262.6640881993
 21
268.8351375681
  0
LINE
  5
44A
100
AcDbEntity
  8
0
100
AcDbLine
 62
7
  6
CONTINUOUS
 10
266.5463967456
 20
245.2405849099
 11
221.0463967456
 21
245.2405849099
  0
LINE
  5
44B
100
AcDbEntity
  8
0
100
AcDbLine
 62
7
  6
CONTINUOUS
 10
300.5463967456
 20
246.0351375681
 11
287.1463967487
 21
246.0351375681
  0
LINE
  5
44C
100
AcDbEntity
  8
0
100
AcDbLine
 62
7
  6
CONTINUOUS
 10
366.5463967456
 20
249.5351375681
 11
361.5463967456
 21
249.5351375681
  0
LINE
  5
44D
100
AcDbEntity
  8
0
100
AcDbLine
 62
7
  6
CONTINUOUS
 10
361.5463967456
 20
249.6351375681
 11
361.0463967456
 21
249.6351375681
  0
LINE
  5
44E
100
AcDbEntity
  8
0
100
AcDbLine
 62
7
  6
CONTINUOUS
 10
256.428705292
 20
265.2351375681
 11
259.5463967456
 21
263.4351375681
  0
LINE
  5
44F
100
AcDbEntity
  8
0
100
AcDbLine
 62
7
  6
CONTINUOUS
 10
266.5463967456
 20
236.0351375681
 11
266.5463967456
 21
245.2405849099
  0
LINE
  5
450
100
AcDbEntity
  8
0
100
AcDbLine
 62
7
  6
CONTINUOUS
 10
266.5463967456
 20
316.8296902263
 11
266.5463967456
 21
326.0351375681
  0
LINE
  5
451
100
AcDbEntity
  8
FASEN
100
AcDbLine
 62
7
  6
CONTINUOUS
 10
287.0463967456
 20
315.9351434923
 11
287.1463937766
 21
316.0351405402
  0
LINE
  5
452
100
AcDbEntity
  8
0
100
AcDbLine
 62
7
  6
CONTINUOUS
 10
262.6640881993
 20
268.8351375681
 11
259.5463967456
 21
270.6351375681
  0
LINE
  5
453
100
AcDbEntity
  8
FASEN
100
AcDbLine
 62
7
  6
CONTINUOUS
 10
287.0463967456
 20
246.1351316439
 11
287.1463937766
 21
246.035134596
  0
LINE
  5
454
100
AcDbEntity
  8
0
100
AcDbLine
 62
7
  6
CONTINUOUS
 10
274.5463967456
 20
236.0351375681
 11
274.5463967456
 21
326.0351375681
  0
LINE
  5
455
100
AcDbEntity
  8
FASEN
100
AcDbLine
 62
7
  6
CONTINUOUS
 10
310.0463967456
 20
325.9351201569
 11
310.1464054715
 21
326.0351288439
  0
LINE
  5
456
100
AcDbEntity
  8
FASEN
100
AcDbLine
 62
7
  6
CONTINUOUS
 10
310.0463967456
 20
236.1351549793
 11
310.1464054715
 21
236.0351462923
  0
LINE
  5
457
100
AcDbEntity
  8
KOSMETIKAS_BLATT2_AUSBLENDEN
100
AcDbLine
 62
2
  6
CENTER
 10
279.0463967456
 20
290.5351375681
 11
279.0463967456
 21
271.5351375681
  0
LINE
  5
458
100
AcDbEntity
  8
DEFAULT_2
100
AcDbLine
 62
8
  6
HIDDEN
 10
367.5463967456
 20
265.2851375681
 11
361.5463967456
 21
265.2851375681
  0
LINE
  5
459
100
AcDbEntity
  8
BEZUGSACHSEN
100
AcDbLine
 62
2
  6
CENTER
 10
259.5463967456
 20
267.0351375681
 11
251.4149861644
 21
267.0351375681
  0
LINE
  5
45A
100
AcDbEntity
  8
BEZUGSACHSEN
100
AcDbLine
 62
2
  6
CENTER
 10
251.4149861644
 20
267.0351375681
 11
250.0106824599
 21
267.0351375681
  0
LINE
  5
45B
100
AcDbEntity
  8
BEZUGSACHSEN
100
AcDbLine
 62
2
  6
CENTER
 10
259.5463967456
 20
267.0351375681
 11
269.0821110314
 21
267.0351375681
  0
LINE
  5
45C
100
AcDbEntity
  8
0
100
AcDbLine
 62
7
  6
CONTINUOUS
 10
287.0463967456
 20
236.0351375681
 11
287.0463967456
 21
326.0351375681
  0
LINE
  5
45D
100
AcDbEntity
  8
FASEN
100
AcDbLine
 62
7
  6
CONTINUOUS
 10
287.1463967487
 20
316.0351375681
 11
287.1463967487
 21
246.0351375681
  0
LINE
  5
45E
100
AcDbEntity
  8
0
100
AcDbLine
 62
7
  6
CONTINUOUS
 10
259.5463967456
 20
270.6351375681
 11
256.428705292
 21
268.8351375681
  0
LINE
  5
45F
100
AcDbEntity
  8
KOSMETIKAS_BLATT2_AUSBLENDEN
100
AcDbLine
 62
2
  6
CENTER
 10
279.0463967456
 20
271.5351375681
 11
253.0463967456
 21
271.5351375681
  0
LINE
  5
460
100
AcDbEntity
  8
0
100
AcDbLine
 62
7
  6
CONTINUOUS
 10
259.5463967456
 20
263.4351375681
 11
262.6640881993
 21
265.2351375681
  0
LINE
  5
461
100
AcDbEntity
  8
TEIL_STARTBEZUEGE
100
AcDbLine
 62
2
  6
CENTER
 10
376.2029829862
 20
281.0351375681
 11
211.9005758652
 21
281.0351375681
  0
LINE
  5
462
100
AcDbEntity
  8
RUNDUNGEN
100
AcDbLine
 62
9
  6
CONTINUOUS
 10
300.5463967456
 20
246.0351375681
 11
300.5463967456
 21
316.0351375681
  0
LINE
  5
463
100
AcDbEntity
  8
0
100
AcDbLine
 62
7
  6
CONTINUOUS
 10
301.0463967456
 20
233.5355244851
 11
301.0463967456
 21
328.5347506511
  0
LINE
  5
464
100
AcDbEntity
  8
0
100
AcDbLine
 62
7
  6
CONTINUOUS
 10
306.4760267288
 20
233.5351375681
 11
306.4760267288
 21
328.5351375681
  0
LINE
  5
465
100
AcDbEntity
  8
KOSMETIKAS_BLATT2_AUSBLENDEN
100
AcDbLine
 62
2
  6
CENTER
 10
253.0463967456
 20
290.5351375681
 11
279.0463967456
 21
290.5351375681
  0
LINE
  5
466
100
AcDbEntity
  8
0
100
AcDbLine
 62
7
  6
CONTINUOUS
 10
310.0463967456
 20
236.0351375681
 11
310.0463967456
 21
326.0351375681
  0
LINE
  5
467
100
AcDbEntity
  8
FASEN
100
AcDbLine
 62
7
  6
CONTINUOUS
 10
310.1463967473
 20
326.0351375681
 11
310.1463967473
 21
236.0351375681
  0
LINE
  5
468
100
AcDbEntity
  8
DEFAULT_2
100
AcDbLine
 62
8
  6
HIDDEN
 10
367.5463967456
 20
296.7851375681
 11
361.5463967456
 21
296.7851375681
  0
LINE
  5
469
100
AcDbEntity
  8
0
100
AcDbLine
 62
7
  6
CONTINUOUS
 10
361.5463967456
 20
312.4351375681
 11
361.0463967456
 21
312.4351375681
  0
LINE
  5
46A
100
AcDbEntity
  8
0
100
AcDbLine
 62
7
  6
CONTINUOUS
 10
366.5463967456
 20
312.5351375681
 11
361.5463967456
 21
312.5351375681
  0
LINE
  5
46B
100
AcDbEntity
  8
0
100
AcDbLine
 62
7
  6
CONTINUOUS
 10
330.5463967456
 20
222.0351375681
 11
330.5463967456
 21
340.0351375681
  0
LINE
  5
46C
100
AcDbEntity
  8
0
100
AcDbLine
 62
7
  6
CONTINUOUS
 10
300.5463967456
 20
316.0351375681
 11
287.1463967487
 21
316.0351375681
  0
LINE
  5
46D
100
AcDbEntity
  8
0
100
AcDbLine
 62
7
  6
CONTINUOUS
 10
266.5463967456
 20
316.8296902263
 11
221.0463967456
 21
316.8296902263
  0
LINE
  5
46E
100
AcDbEntity
  8
0
100
AcDbLine
 62
7
  6
CONTINUOUS
 10
337.5463967456
 20
222.0351375681
 11
337.5463967456
 21
340.0351375681
  0
LINE
  5
46F
100
AcDbEntity
  8
KOSMETIKAS_BLATT2_AUSBLENDEN
100
AcDbLine
 62
2
  6
CENTER
 10
221.0463967456
 20
321.0351375681
 11
224.9963967456
 21
321.0351375681
  0
LINE
  5
470
100
AcDbEntity
  8
0
100
AcDbLine
 62
7
  6
CONTINUOUS
 10
310.0463967456
 20
236.0351375681
 11
306.4760267288
 21
233.5351375681
  0
LINE
  5
471
100
AcDbEntity
  8
0
100
AcDbLine
 62
7
  6
CONTINUOUS
 10
349.5463967456
 20
326.0351375681
 11
337.5463967456
 21
326.0351375681
  0
LINE
  5
472
100
AcDbEntity
  8
0
100
AcDbLine
 62
7
  6
CONTINUOUS
 10
330.5463967456
 20
326.0351375681
 11
310.1463967473
 21
326.0351375681
  0
LINE
  5
473
100
AcDbEntity
  8
0
100
AcDbLine
 62
7
  6
CONTINUOUS
 10
221.0463967456
 20
326.0351375681
 11
287.0463967456
 21
326.0351375681
  0
LINE
  5
474
100
AcDbEntity
  8
0
100
AcDbLine
 62
7
  6
CONTINUOUS
 10
306.4760267288
 20
328.5351375681
 11
301.0463967456
 21
328.5351375681
  0
LINE
  5
475
100
AcDbEntity
  8
0
100
AcDbLine
 62
7
  6
CONTINUOUS
 10
360.1335525016
 20
325.1088814605
 11
349.5463967456
 21
326.0351375681
  0
LINE
  5
476
100
AcDbEntity
  8
0
100
AcDbLine
 62
7
  6
CONTINUOUS
 10
310.0463967456
 20
326.0351375681
 11
306.4760267288
 21
328.5351375681
  0
LINE
  5
477
100
AcDbEntity
  8
0
100
AcDbLine
 62
7
  6
CONTINUOUS
 10
349.5463967456
 20
236.0351375681
 11
349.5463967456
 21
326.0351375681
  0
LINE
  5
478
100
AcDbEntity
  8
0
100
AcDbLine
 62
7
  6
CONTINUOUS
 10
337.5463967456
 20
340.0351375681
 11
330.5463967456
 21
340.0351375681
  0
LINE
  5
479
100
AcDbEntity
  8
RUNDUNGEN
100
AcDbLine
 62
9
  6
CONTINUOUS
 10
360.1335525016
 20
325.1088814605
 11
360.1335525016
 21
236.9613936757
  0
LINE
  5
47A
100
AcDbEntity
  8
RUNDUNGEN
100
AcDbLine
 62
7
  6
CONTINUOUS
 10
361.0463967456
 20
324.1126863717
 11
361.0463967456
 21
237.9575887646
  0
LINE
  5
47B
100
AcDbEntity
  8
0
100
AcDbLine
 62
7
  6
CONTINUOUS
 10
361.5463967456
 20
249.5351375681
 11
361.5463967456
 21
312.5351375681
  0
LINE
  5
47C
100
AcDbEntity
  8
RUNDUNGEN
100
AcDbLine
 62
9
  6
CONTINUOUS
 10
366.5463967456
 20
312.5351375681
 11
366.5463967456
 21
249.5351375681
  0
LINE
  5
47D
100
AcDbEntity
  8
RUNDUNGEN
100
AcDbLine
 62
7
  6
CONTINUOUS
 10
367.5463967456
 20
311.5349365746
 11
367.5463967456
 21
250.5353385617
  0
LINE
  5
47E
100
AcDbEntity
  8
0
100
AcDbLine
 62
7
  6
CONTINUOUS
 10
471.2607395733
 20
316.8296902263
 11
471.2607395733
 21
245.2405849099
  0
LINE
  5
47F
100
AcDbEntity
  8
0
100
AcDbLine
 62
7
  6
CONTINUOUS
 10
480.4661869151
 20
236.0351375681
 11
552.0552922315
 21
236.0351375681
  0
LINE
  5
480
100
AcDbEntity
  8
0
100
AcDbLine
 62
7
  6
CONTINUOUS
 10
475.928533977
 20
265.8284334088
 11
475.928533977
 21
264.0964334088
  0
LINE
  5
481
100
AcDbEntity
  8
0
100
AcDbLine
 62
7
  6
CONTINUOUS
 10
531.4674437327
 20
240.7029319718
 11
533.1994437327
 21
240.7029319718
  0
LINE
  5
482
100
AcDbEntity
  8
0
100
AcDbLine
 62
7
  6
CONTINUOUS
 10
478.9870644387
 20
264.0964334088
 11
478.9870644387
 21
265.8284334088
  0
LINE
  5
483
100
AcDbEntity
  8
BEZUGSACHSEN
100
AcDbLine
 62
2
  6
CENTER
 10
480.905400514
 20
316.3904766274
 11
480.905400514
 21
309.6047623417
  0
LINE
  5
484
100
AcDbEntity
  8
BEZUGSACHSEN
100
AcDbLine
 62
2
  6
CENTER
 10
480.905400514
 20
245.6797985088
 11
480.905400514
 21
238.8940842231
  0
LINE
  5
485
100
AcDbEntity
  8
BEZUGSACHSEN
100
AcDbLine
 62
2
  6
CENTER
 10
480.905400514
 20
245.6797985088
 11
480.905400514
 21
252.4655127945
  0
LINE
  5
486
100
AcDbEntity
  8
BEZUGSACHSEN
100
AcDbLine
 62
2
  6
CENTER
 10
480.905400514
 20
316.3904766274
 11
480.905400514
 21
323.1761909131
  0
LINE
  5
487
100
AcDbEntity
  8
0
100
AcDbLine
 62
7
  6
CONTINUOUS
 10
499.322035414
 20
321.3673431644
 11
498.5089106673
 21
319.8380779336
  0
LINE
  5
488
100
AcDbEntity
  8
0
100
AcDbLine
 62
7
  6
CONTINUOUS
 10
533.1994437327
 20
243.7614624335
 11
531.4674437327
 21
243.7614624335
  0
LINE
  5
489
100
AcDbEntity
  8
BEZUGSACHSEN
100
AcDbLine
 62
2
  6
CENTER
 10
551.6160786327
 20
245.6797985088
 11
544.8303643469
 21
245.6797985088
  0
LINE
  5
48A
100
AcDbEntity
  8
BEZUGSACHSEN
100
AcDbLine
 62
2
  6
CENTER
 10
480.905400514
 20
245.6797985088
 11
474.1196862283
 21
245.6797985088
  0
LINE
  5
48B
100
AcDbEntity
  8
BEZUGSACHSEN
100
AcDbLine
 62
2
  6
CENTER
 10
480.905400514
 20
245.6797985088
 11
487.6911147997
 21
245.6797985088
  0
LINE
  5
48C
100
AcDbEntity
  8
BEZUGSACHSEN
100
AcDbLine
 62
2
  6
CENTER
 10
551.6160786327
 20
245.6797985088
 11
558.4017929184
 21
245.6797985088
  0
LINE
  5
48D
100
AcDbEntity
  8
0
100
AcDbLine
 62
7
  6
CONTINUOUS
 10
475.928533977
 20
264.0964334088
 11
477.4577992079
 21
263.283308662
  0
LINE
  5
48E
100
AcDbEntity
  8
0
100
AcDbLine
 62
7
  6
CONTINUOUS
 10
501.054035414
 20
318.3088127027
 11
501.8671601607
 21
319.8380779336
  0
LINE
  5
48F
100
AcDbEntity
  8
0
100
AcDbLine
 62
7
  6
CONTINUOUS
 10
478.9870644387
 20
265.8284334088
 11
477.4577992079
 21
266.6415581555
  0
LINE
  5
490
100
AcDbEntity
  8
0
100
AcDbLine
 62
7
  6
CONTINUOUS
 10
524.3270737093
 20
262.7851375681
 11
528.2607395733
 21
262.7851375681
  0
LINE
  5
491
100
AcDbEntity
  8
BEZUGSACHSEN
100
AcDbLine
 62
2
  6
CENTER
 10
565.546453859
 20
267.0351375681
 11
555.9750252876
 21
267.0351375681
  0
LINE
  5
492
100
AcDbEntity
  8
0
100
AcDbLine
 62
7
  6
CONTINUOUS
 10
477.4577992079
 20
266.6415581555
 11
475.928533977
 21
265.8284334088
  0
LINE
  5
493
100
AcDbEntity
  8
0
100
AcDbLine
 62
7
  6
CONTINUOUS
 10
530.6543189859
 20
242.2321972026
 11
531.4674437327
 21
240.7029319718
  0
LINE
  5
494
100
AcDbEntity
  8
0
100
AcDbLine
 62
7
  6
CONTINUOUS
 10
515.5107395733
 20
271.5647891057
 11
515.5107395733
 21
261.0492050154
  0
LINE
  5
495
100
AcDbEntity
  8
TEIL_STARTBEZUEGE
100
AcDbLine
 62
2
  6
CENTER
 10
516.2607395733
 20
229.289698293
 11
516.2607395733
 21
332.6525052558
  0
LINE
  5
496
100
AcDbEntity
  8
0
100
AcDbLine
 62
7
  6
CONTINUOUS
 10
477.4577992079
 20
263.283308662
 11
478.9870644387
 21
264.0964334088
  0
LINE
  5
497
100
AcDbEntity
  8
TEIL_STARTBEZUEGE
100
AcDbLine
 62
2
  6
CENTER
 10
465.1148675327
 20
281.0351375681
 11
568.2270557125
 21
281.0351375681
  0
LINE
  5
498
100
AcDbEntity
  8
0
100
AcDbLine
 62
7
  6
CONTINUOUS
 10
534.0125684794
 20
242.2321972026
 11
533.1994437327
 21
243.7614624335
  0
LINE
  5
499
100
AcDbEntity
  8
0
100
AcDbLine
 62
7
  6
CONTINUOUS
 10
517.0107395733
 20
261.0492050154
 11
517.0107395733
 21
271.5647891057
  0
LINE
  5
49A
100
AcDbEntity
  8
0
100
AcDbLine
 62
7
  6
CONTINUOUS
 10
555.0636799388
 20
298.7869664742
 11
553.534414708
 21
297.9738417274
  0
LINE
  5
49B
100
AcDbEntity
  8
0
100
AcDbLine
 62
7
  6
CONTINUOUS
 10
555.0636799388
 20
295.4287169807
 11
556.5929451696
 21
296.2418417274
  0
LINE
  5
49C
100
AcDbEntity
  8
0
100
AcDbLine
 62
7
  6
CONTINUOUS
 10
498.5089106673
 20
319.8380779336
 11
499.322035414
 21
318.3088127027
  0
LINE
  5
49D
100
AcDbEntity
  8
0
100
AcDbLine
 62
7
  6
CONTINUOUS
 10
501.8671601607
 20
319.8380779336
 11
501.054035414
 21
321.3673431644
  0
LINE
  5
49E
100
AcDbEntity
  8
0
100
AcDbLine
 62
7
  6
CONTINUOUS
 10
528.2607395733
 20
265.1277760625
 11
528.2607395733
 21
262.7851375681
  0
LINE
  5
49F
100
AcDbEntity
  8
0
100
AcDbLine
 62
7
  6
CONTINUOUS
 10
531.4674437327
 20
243.7614624335
 11
530.6543189859
 21
242.2321972026
  0
LINE
  5
4A0
100
AcDbEntity
  8
0
100
AcDbLine
 62
7
  6
CONTINUOUS
 10
533.1994437327
 20
240.7029319718
 11
534.0125684794
 21
242.2321972026
  0
LINE
  5
4A1
100
AcDbEntity
  8
0
100
AcDbLine
 62
7
  6
CONTINUOUS
 10
553.534414708
 20
296.2418417274
 11
555.0636799388
 21
295.4287169807
  0
LINE
  5
4A2
100
AcDbEntity
  8
0
100
AcDbLine
 62
7
  6
CONTINUOUS
 10
556.5929451696
 20
297.9738417274
 11
555.0636799388
 21
298.7869664742
  0
LINE
  5
4A3
100
AcDbEntity
  8
BEZUGSACHSEN
100
AcDbLine
 62
2
  6
CENTER
 10
551.6160786327
 20
316.3904766274
 11
551.6160786327
 21
309.6047623417
  0
LINE
  5
4A4
100
AcDbEntity
  8
BEZUGSACHSEN
100
AcDbLine
 62
2
  6
CENTER
 10
551.6160786327
 20
245.6797985088
 11
551.6160786327
 21
238.8940842231
  0
LINE
  5
4A5
100
AcDbEntity
  8
BEZUGSACHSEN
100
AcDbLine
 62
2
  6
CENTER
 10
551.6160786327
 20
245.6797985088
 11
551.6160786327
 21
252.4655127945
  0
LINE
  5
4A6
100
AcDbEntity
  8
BEZUGSACHSEN
100
AcDbLine
 62
2
  6
CENTER
 10
551.6160786327
 20
316.3904766274
 11
551.6160786327
 21
323.1761909131
  0
LINE
  5
4A7
100
AcDbEntity
  8
0
100
AcDbLine
 62
7
  6
CONTINUOUS
 10
553.534414708
 20
297.9738417274
 11
553.534414708
 21
296.2418417274
  0
LINE
  5
4A8
100
AcDbEntity
  8
BEZUGSACHSEN
100
AcDbLine
 62
2
  6
CENTER
 10
551.6160786327
 20
316.3904766274
 11
544.8303643469
 21
316.3904766274
  0
LINE
  5
4A9
100
AcDbEntity
  8
BEZUGSACHSEN
100
AcDbLine
 62
2
  6
CENTER
 10
480.905400514
 20
316.3904766274
 11
474.1196862283
 21
316.3904766274
  0
LINE
  5
4AA
100
AcDbEntity
  8
BEZUGSACHSEN
100
AcDbLine
 62
2
  6
CENTER
 10
480.905400514
 20
316.3904766274
 11
487.6911147997
 21
316.3904766274
  0
LINE
  5
4AB
100
AcDbEntity
  8
BEZUGSACHSEN
100
AcDbLine
 62
2
  6
CENTER
 10
551.6160786327
 20
316.3904766274
 11
558.4017929184
 21
316.3904766274
  0
LINE
  5
4AC
100
AcDbEntity
  8
0
100
AcDbLine
 62
7
  6
CONTINUOUS
 10
499.322035414
 20
318.3088127027
 11
501.054035414
 21
318.3088127027
  0
LINE
  5
4AD
100
AcDbEntity
  8
0
100
AcDbLine
 62
7
  6
CONTINUOUS
 10
556.5929451696
 20
296.2418417274
 11
556.5929451696
 21
297.9738417274
  0
LINE
  5
4AE
100
AcDbEntity
  8
0
100
AcDbLine
 62
7
  6
CONTINUOUS
 10
561.2607395733
 20
245.2405849099
 11
561.2607395733
 21
316.8296902263
  0
LINE
  5
4AF
100
AcDbEntity
  8
0
100
AcDbLine
 62
7
  6
CONTINUOUS
 10
501.054035414
 20
321.3673431644
 11
499.322035414
 21
321.3673431644
  0
LINE
  5
4B0
100
AcDbEntity
  8
0
100
AcDbLine
 62
7
  6
CONTINUOUS
 10
552.0552922315
 20
326.0351375681
 11
480.4661869151
 21
326.0351375681
  0
LWPOLYLINE
  5
4B1
100
AcDbEntity
  8
0
100
AcDbPolyline
 62
2
  6
CONTINUOUS
 90
5
 70
0
 10
70.0583432042
 20
351.4402969757
 10
67.4527994551
 20
358.0909773872
 10
82.9710537484
 20
364.1705794683
 10
85.5765974975
 20
357.5198990569
 10
70.0583432042
 20
351.4402969757
  0
LINE
  5
4B2
100
AcDbEntity
  8
TEIL_STARTBEZUEGE
100
AcDbLine
 62
2
  6
CENTER
 10
106.5910763218
 20
220.9642026626
 11
106.5910763218
 21
341.3472793664
  0
LWPOLYLINE
  5
4B3
100
AcDbEntity
  8
0
100
AcDbPolyline
 62
2
  6
CONTINUOUS
 90
5
 70
0
 10
28.7495637224
 20
230.447001154
 10
53.7599600283
 20
247.0452171429
 10
49.8102429091
 20
252.9966995499
 10
24.7998466032
 20
236.398483561
 10
28.7495637224
 20
230.447001154
  0
LINE
  5
4B4
100
AcDbEntity
  8
TEIL_STARTBEZUEGE
100
AcDbLine
 62
2
  6
CENTER
 10
166.4099334647
 20
281.0351375681
 11
46.7339223913
 21
281.0351375681
  0
LWPOLYLINE
  5
4B5
100
AcDbEntity
  8
0
100
AcDbPolyline
 62
2
  6
CONTINUOUS
 90
5
 70
0
 10
19.7485890127
 20
258.6712486436
 10
46.5236454727
 20
265.8514363577
 10
44.6735357549
 20
272.7505306602
 10
17.898479295
 20
265.5703429462
 10
19.7485890127
 20
258.6712486436
  0
CIRCLE
  5
4B6
100
AcDbEntity
  8
BEZUGSACHSEN
100
AcDbCircle
 62
7
  6
CONTINUOUS
 10
259.5463967456
 20
267.0351375681
 40
5.25
  0
ARC
  5
4B7
100
AcDbEntity
  8
RUNDUNGEN
100
AcDbCircle
 62
7
  6
CONTINUOUS
 10
360.0463967456
 20
237.9575883727
 40
1.0
100
AcDbArc
 50
275.000000758
 51
0.0000082641
  0
ARC
  5
4B8
100
AcDbEntity
  8
RUNDUNGEN
100
AcDbCircle
 62
7
  6
CONTINUOUS
 10
360.0463967456
 20
324.1126867635
 40
1.0
100
AcDbArc
 50
359.9999917359
 51
84.999999242
  0
ARC
  5
4B9
100
AcDbEntity
  8
RUNDUNGEN
100
AcDbCircle
 62
7
  6
CONTINUOUS
 10
366.5463967456
 20
250.5351375681
 40
1.0
100
AcDbArc
 50
270.0
 51
0.0000145502
  0
ARC
  5
4BA
100
AcDbEntity
  8
RUNDUNGEN
100
AcDbCircle
 62
7
  6
CONTINUOUS
 10
366.5463967456
 20
311.5351375681
 40
1.0
100
AcDbArc
 50
359.9999854498
 51
90.0
  0
ARC
  5
4BB
100
AcDbEntity
  8
RUNDUNGEN
100
AcDbCircle
 62
7
  6
CONTINUOUS
 10
300.5463967456
 20
245.5351375681
 40
0.5
100
AcDbArc
 50
0.0000068575
 51
90.0
  0
ARC
  5
4BC
100
AcDbEntity
  8
RUNDUNGEN
100
AcDbCircle
 62
7
  6
CONTINUOUS
 10
300.5463967456
 20
316.5351375681
 40
0.5
100
AcDbArc
 50
270.0
 51
359.9999931425
  0
ARC
  5
4BD
100
AcDbEntity
  8
0
100
AcDbCircle
 62
2
  6
CONTINUOUS
 10
88.9134067922
 20
263.3574680384
 40
3.0
100
AcDbArc
 50
255.0
 51
195.0
  0
CIRCLE
  5
4BE
100
AcDbEntity
  8
BEZUGSACHSEN
100
AcDbCircle
 62
7
  6
CONTINUOUS
 10
68.0537567472
 20
242.4978179934
 40
2.75
  0
CIRCLE
  5
4BF
100
AcDbEntity
  8
BEZUGSACHSEN
100
AcDbCircle
 62
7
  6
CONTINUOUS
 10
88.9134067922
 20
263.3574680384
 40
2.5
  0
ARC
  5
4C0
100
AcDbEntity
  8
0
100
AcDbCircle
 62
2
  6
CONTINUOUS
 10
81.5910763218
 20
281.0351375681
 40
3.0
100
AcDbArc
 50
255.0
 51
195.0
  0
ARC
  5
4C1
100
AcDbEntity
  8
0
100
AcDbCircle
 62
2
  6
CONTINUOUS
 10
88.9134067922
 20
298.7128070978
 40
3.0
100
AcDbArc
 50
255.0
 51
195.0
  0
CIRCLE
  5
4C2
100
AcDbEntity
  8
BEZUGSACHSEN
100
AcDbCircle
 62
7
  6
CONTINUOUS
 10
68.0537567472
 20
319.5724571428
 40
2.75
  0
CIRCLE
  5
4C3
100
AcDbEntity
  8
BEZUGSACHSEN
100
AcDbCircle
 62
7
  6
CONTINUOUS
 10
52.0910763218
 20
281.0351375681
 40
2.75
  0
CIRCLE
  5
4C4
100
AcDbEntity
  8
BEZUGSACHSEN
100
AcDbCircle
 62
7
  6
CONTINUOUS
 10
88.9134067922
 20
298.7128070978
 40
2.5
  0
CIRCLE
  5
4C5
100
AcDbEntity
  8
BEZUGSACHSEN
100
AcDbCircle
 62
7
  6
CONTINUOUS
 10
81.5910763218
 20
281.0351375681
 40
2.5
  0
ARC
  5
4C6
100
AcDbEntity
  8
0
100
AcDbCircle
 62
2
  6
CONTINUOUS
 10
124.2687458515
 20
263.3574680384
 40
3.0
100
AcDbArc
 50
255.0
 51
195.0
  0
ARC
  5
4C7
100
AcDbEntity
  8
0
100
AcDbCircle
 62
2
  6
CONTINUOUS
 10
106.5910763218
 20
256.0351375681
 40
3.0
100
AcDbArc
 50
255.0
 51
195.0
  0
CIRCLE
  5
4C8
100
AcDbEntity
  8
BEZUGSACHSEN
100
AcDbCircle
 62
7
  6
CONTINUOUS
 10
106.5910763218
 20
226.5351375681
 40
2.75
  0
CIRCLE
  5
4C9
100
AcDbEntity
  8
BEZUGSACHSEN
100
AcDbCircle
 62
7
  6
CONTINUOUS
 10
145.1283958965
 20
242.4978179934
 40
2.75
  0
CIRCLE
  5
4CA
100
AcDbEntity
  8
BEZUGSACHSEN
100
AcDbCircle
 62
7
  6
CONTINUOUS
 10
106.5910763218
 20
256.0351375681
 40
2.5
  0
CIRCLE
  5
4CB
100
AcDbEntity
  8
BEZUGSACHSEN
100
AcDbCircle
 62
7
  6
CONTINUOUS
 10
124.2687458515
 20
263.3574680384
 40
2.5
  0
CIRCLE
  5
4CC
100
AcDbEntity
  8
0
100
AcDbCircle
 62
7
  6
CONTINUOUS
 10
106.5910763218
 20
281.0351375681
 40
59.0
  0
CIRCLE
  5
4CD
100
AcDbEntity
  8
BLATT1_AUSBLENDEN
100
AcDbCircle
 62
2
  6
CENTER
 10
106.5910763218
 20
281.0351375681
 40
54.5
  0
CIRCLE
  5
4CE
100
AcDbEntity
  8
0
100
AcDbCircle
 62
7
  6
CONTINUOUS
 10
106.5910763218
 20
281.0351375681
 40
45.0
  0
CIRCLE
  5
4CF
100
AcDbEntity
  8
RUNDUNGEN
100
AcDbCircle
 62
9
  6
CONTINUOUS
 10
106.5910763218
 20
281.0351375681
 40
44.0737438858
  0
CIRCLE
  5
4D0
100
AcDbEntity
  8
RUNDUNGEN
100
AcDbCircle
 62
9
  6
CONTINUOUS
 10
106.5910763218
 20
281.0351375681
 40
43.0775482305
  0
CIRCLE
  5
4D1
100
AcDbEntity
  8
RUNDUNGEN
100
AcDbCircle
 62
7
  6
CONTINUOUS
 10
106.5910763218
 20
281.0351375681
 40
31.5
  0
CIRCLE
  5
4D2
100
AcDbEntity
  8
RUNDUNGEN
100
AcDbCircle
 62
9
  6
CONTINUOUS
 10
106.5910763218
 20
281.0351375681
 40
30.4999986334
  0
CIRCLE
  5
4D3
100
AcDbEntity
  8
BLATT1_AUSBLENDEN
100
AcDbCircle
 62
2
  6
CENTER
 10
106.5910763218
 20
281.0351375681
 40
25.0
  0
CIRCLE
  5
4D4
100
AcDbEntity
  8
0
100
AcDbCircle
 62
7
  6
CONTINUOUS
 10
106.5910763218
 20
281.0351375681
 40
15.75
  0
ARC
  5
4D5
100
AcDbEntity
  8
0
100
AcDbCircle
 62
2
  6
CONTINUOUS
 10
106.5910763218
 20
306.0351375681
 40
3.0
100
AcDbArc
 50
255.0
 51
195.0
  0
CIRCLE
  5
4D6
100
AcDbEntity
  8
BEZUGSACHSEN
100
AcDbCircle
 62
7
  6
CONTINUOUS
 10
106.5910763218
 20
306.0351375681
 40
2.5
  0
ARC
  5
4D7
100
AcDbEntity
  8
0
100
AcDbCircle
 62
2
  6
CONTINUOUS
 10
131.5910763218
 20
281.0351375681
 40
3.0
100
AcDbArc
 50
255.0
 51
195.0
  0
CIRCLE
  5
4D8
100
AcDbEntity
  8
BEZUGSACHSEN
100
AcDbCircle
 62
7
  6
CONTINUOUS
 10
131.5910763218
 20
281.0351375681
 40
2.5
  0
ARC
  5
4D9
100
AcDbEntity
  8
0
100
AcDbCircle
 62
2
  6
CONTINUOUS
 10
124.2687458515
 20
298.7128070978
 40
3.0
100
AcDbArc
 50
255.0
 51
195.0
  0
CIRCLE
  5
4DA
100
AcDbEntity
  8
BEZUGSACHSEN
100
AcDbCircle
 62
7
  6
CONTINUOUS
 10
124.2687458515
 20
298.7128070978
 40
2.5
  0
CIRCLE
  5
4DB
100
AcDbEntity
  8
BEZUGSACHSEN
100
AcDbCircle
 62
7
  6
CONTINUOUS
 10
106.5910763218
 20
335.5351375681
 40
2.75
  0
CIRCLE
  5
4DC
100
AcDbEntity
  8
BEZUGSACHSEN
100
AcDbCircle
 62
7
  6
CONTINUOUS
 10
161.0910763218
 20
281.0351375681
 40
2.75
  0
CIRCLE
  5
4DD
100
AcDbEntity
  8
BEZUGSACHSEN
100
AcDbCircle
 62
7
  6
CONTINUOUS
 10
145.1283958965
 20
319.5724571428
 40
2.75
  0
CIRCLE
  5
4DE
100
AcDbEntity
  8
BEZUGSACHSEN
100
AcDbCircle
 62
7
  6
CONTINUOUS
 10
477.4577992079
 20
264.9624334088
 40
5.0
  0
CIRCLE
  5
4DF
100
AcDbEntity
  8
0
100
AcDbCircle
 62
7
  6
CONTINUOUS
 10
477.4577992079
 20
264.9624334088
 40
3.5
  0
ARC
  5
4E0
100
AcDbEntity
  8
0
100
AcDbCircle
 62
2
  6
CONTINUOUS
 10
480.905400514
 20
245.6797985088
 40
3.0
100
AcDbArc
 50
255.0
 51
195.0
  0
CIRCLE
  5
4E1
100
AcDbEntity
  8
BEZUGSACHSEN
100
AcDbCircle
 62
7
  6
CONTINUOUS
 10
480.905400514
 20
245.6797985088
 40
2.5
  0
CIRCLE
  5
4E2
100
AcDbEntity
  8
BEZUGSACHSEN
100
AcDbCircle
 62
7
  6
CONTINUOUS
 10
500.188035414
 20
319.8380779336
 40
5.0
  0
CIRCLE
  5
4E3
100
AcDbEntity
  8
0
100
AcDbCircle
 62
7
  6
CONTINUOUS
 10
500.188035414
 20
319.8380779336
 40
3.5
  0
ARC
  5
4E4
100
AcDbEntity
  8
0
100
AcDbCircle
 62
2
  6
CONTINUOUS
 10
480.905400514
 20
316.3904766274
 40
3.0
100
AcDbArc
 50
255.0
 51
195.0
  0
CIRCLE
  5
4E5
100
AcDbEntity
  8
BEZUGSACHSEN
100
AcDbCircle
 62
7
  6
CONTINUOUS
 10
461.7607395733
 20
281.0351375681
 40
2.75
  0
CIRCLE
  5
4E6
100
AcDbEntity
  8
BEZUGSACHSEN
100
AcDbCircle
 62
7
  6
CONTINUOUS
 10
480.905400514
 20
316.3904766274
 40
2.5
  0
CIRCLE
  5
4E7
100
AcDbEntity
  8
BEZUGSACHSEN
100
AcDbCircle
 62
7
  6
CONTINUOUS
 10
532.3334437327
 20
242.2321972026
 40
5.0
  0
CIRCLE
  5
4E8
100
AcDbEntity
  8
0
100
AcDbCircle
 62
7
  6
CONTINUOUS
 10
532.3334437327
 20
242.2321972026
 40
3.5
  0
ARC
  5
4E9
100
AcDbEntity
  8
0
100
AcDbCircle
 62
2
  6
CONTINUOUS
 10
551.6160786327
 20
245.6797985088
 40
3.0
100
AcDbArc
 50
255.0
 51
195.0
  0
CIRCLE
  5
4EA
100
AcDbEntity
  8
BEZUGSACHSEN
100
AcDbCircle
 62
7
  6
CONTINUOUS
 10
516.2607395733
 20
226.5351375681
 40
2.75
  0
CIRCLE
  5
4EB
100
AcDbEntity
  8
BEZUGSACHSEN
100
AcDbCircle
 62
7
  6
CONTINUOUS
 10
551.6160786327
 20
245.6797985088
 40
2.5
  0
CIRCLE
  5
4EC
100
AcDbEntity
  8
0
100
AcDbCircle
 62
7
  6
CONTINUOUS
 10
516.2607395733
 20
281.0351375681
 40
59.0
  0
ARC
  5
4ED
100
AcDbEntity
  8
0
100
AcDbCircle
 62
7
  6
CONTINUOUS
 10
516.2607395733
 20
281.0351375681
 40
57.5
100
AcDbArc
 50
128.4999504092
 51
141.5000495908
  0
ARC
  5
4EE
100
AcDbEntity
  8
0
100
AcDbCircle
 62
7
  6
CONTINUOUS
 10
516.2607395733
 20
281.0351375681
 40
57.5
100
AcDbArc
 50
218.4999504092
 51
231.5000495908
  0
ARC
  5
4EF
100
AcDbEntity
  8
0
100
AcDbCircle
 62
7
  6
CONTINUOUS
 10
516.2607395733
 20
281.0351375681
 40
57.5
100
AcDbArc
 50
308.4999504092
 51
321.5000495908
  0
ARC
  5
4F0
100
AcDbEntity
  8
0
100
AcDbCircle
 62
7
  6
CONTINUOUS
 10
516.2607395733
 20
281.0351375681
 40
57.5
100
AcDbArc
 50
38.4999504092
 51
51.5000495908
  0
CIRCLE
  5
4F1
100
AcDbEntity
  8
BLATT1_LINKS_AUSBLENDEN
100
AcDbCircle
 62
2
  6
CENTER
 10
516.2607395733
 20
281.0351375681
 40
50.0
  0
ARC
  5
4F2
100
AcDbEntity
  8
0
100
AcDbCircle
 62
7
  6
CONTINUOUS
 10
516.2607395733
 20
281.0351375681
 40
47.5
100
AcDbArc
 50
71.5181860374
 51
108.4818139626
  0
ARC
  5
4F3
100
AcDbEntity
  8
0
100
AcDbCircle
 62
7
  6
CONTINUOUS
 10
516.2607395733
 20
281.0351375681
 40
47.5
100
AcDbArc
 50
341.6871930048
 51
18.3128069952
  0
ARC
  5
4F4
100
AcDbEntity
  8
0
100
AcDbCircle
 62
7
  6
CONTINUOUS
 10
516.2607395733
 20
281.0351375681
 40
47.5
100
AcDbArc
 50
251.5181860374
 51
288.4818139626
  0
ARC
  5
4F5
100
AcDbEntity
  8
0
100
AcDbCircle
 62
7
  6
CONTINUOUS
 10
516.2607395733
 20
281.0351375681
 40
47.5
100
AcDbArc
 50
161.6871930048
 51
198.3128069952
  0
ARC
  5
4F6
100
AcDbEntity
  8
BEZUGSACHSEN
100
AcDbCircle
 62
7
  6
CONTINUOUS
 10
516.2607395733
 20
281.0351375681
 40
40.0
100
AcDbArc
 50
118.9092039782
 51
196.0907960218
  0
ARC
  5
4F7
100
AcDbEntity
  8
BEZUGSACHSEN
100
AcDbCircle
 62
7
  6
CONTINUOUS
 10
516.2607395733
 20
281.0351375681
 40
40.0
100
AcDbArc
 50
28.9092039782
 51
106.0907960218
  0
ARC
  5
4F8
100
AcDbEntity
  8
BEZUGSACHSEN
100
AcDbCircle
 62
7
  6
CONTINUOUS
 10
516.2607395733
 20
281.0351375681
 40
40.0
100
AcDbArc
 50
208.9092039782
 51
286.0907960218
  0
ARC
  5
4F9
100
AcDbEntity
  8
BEZUGSACHSEN
100
AcDbCircle
 62
7
  6
CONTINUOUS
 10
516.2607395733
 20
281.0351375681
 40
40.0
100
AcDbArc
 50
298.9092039782
 51
16.0907960218
  0
CIRCLE
  5
4FA
100
AcDbEntity
  8
0
100
AcDbCircle
 62
7
  6
CONTINUOUS
 10
516.2607395733
 20
281.0351375681
 40
23.5
  0
ARC
  5
4FB
100
AcDbEntity
  8
0
100
AcDbCircle
 62
7
  6
CONTINUOUS
 10
516.2607395733
 20
281.0351375681
 40
20.0
100
AcDbArc
 50
272.1490956269
 51
267.8509043731
  0
ARC
  5
4FC
100
AcDbEntity
  8
0
100
AcDbCircle
 62
7
  6
CONTINUOUS
 10
516.2607395733
 20
281.0351375681
 40
16.5
100
AcDbArc
 50
267.3947487349
 51
272.6052512651
  0
CIRCLE
  5
4FD
100
AcDbEntity
  8
0
100
AcDbCircle
 62
7
  6
CONTINUOUS
 10
516.2607395733
 20
281.0351375681
 40
9.5
  0
CIRCLE
  5
4FE
100
AcDbEntity
  8
BEZUGSACHSEN
100
AcDbCircle
 62
7
  6
CONTINUOUS
 10
516.2607395733
 20
335.5351375681
 40
2.75
  0
CIRCLE
  5
4FF
100
AcDbEntity
  8
BEZUGSACHSEN
100
AcDbCircle
 62
7
  6
CONTINUOUS
 10
555.0636799388
 20
297.1078417274
 40
5.0
  0
CIRCLE
  5
500
100
AcDbEntity
  8
0
100
AcDbCircle
 62
7
  6
CONTINUOUS
 10
555.0636799388
 20
297.1078417274
 40
3.5
  0
CIRCLE
  5
501
100
AcDbEntity
  8
BEZUGSACHSEN
100
AcDbCircle
 62
7
  6
CONTINUOUS
 10
570.7607395733
 20
281.0351375681
 40
2.75
  0
ARC
  5
502
100
AcDbEntity
  8
0
100
AcDbCircle
 62
2
  6
CONTINUOUS
 10
551.6160786327
 20
316.3904766274
 40
3.0
100
AcDbArc
 50
255.0
 51
195.0
  0
CIRCLE
  5
503
100
AcDbEntity
  8
BEZUGSACHSEN
100
AcDbCircle
 62
7
  6
CONTINUOUS
 10
551.6160786327
 20
316.3904766274
 40
2.5
  0
SPLINE
  5
504
100
AcDbEntity
  8
0
100
AcDbSpline
 62
7
  6
CONTINUOUS
 70
0
 71
3
 72
11
 73
7
 74
0
 42
0.0000001
 43
0.0000001
 44
0.0000000001
 40
0.0
 40
0.0
 40
0.0
 40
0.0
 40
0.2501486034
 40
0.5002431418
 40
0.7502196086
 40
1.0
 40
1.0
 40
1.0
 40
1.0
 10
274.5463967456
 20
281.0351375576
 30
0.0
 10
274.5463967456
 20
284.1321939093
 30
0.0
 10
274.3380670132
 20
290.3280582847
 30
0.0
 10
273.2374676669
 20
299.568263943
 30
0.0
 10
270.9368116131
 20
308.5977543775
 30
0.0
 10
268.2404909689
 20
314.2424936784
 30
0.0
 10
266.5463967456
 20
316.8296902263
 30
0.0
  0
SPLINE
  5
505
100
AcDbEntity
  8
0
100
AcDbSpline
 62
7
  6
CONTINUOUS
 70
0
 71
3
 72
11
 73
7
 74
0
 42
0.0000001
 43
0.0000001
 44
0.0000000001
 40
0.0
 40
0.0
 40
0.0
 40
0.0
 40
0.2497811956
 40
0.4997572898
 40
0.749851598
 40
1.0
 40
1.0
 40
1.0
 40
1.0
 10
266.5463967456
 20
245.2405849099
 30
0.0
 10
268.2404964185
 20
247.8277897803
 30
0.0
 10
270.9368173573
 20
253.4725353729
 30
0.0
 10
273.2374700688
 20
262.5020288978
 30
0.0
 10
274.3380674065
 20
271.7422246964
 30
0.0
 10
274.5463967291
 20
277.9380837073
 30
0.0
 10
274.5463967456
 20
281.0351375576
 30
0.0
  0
ENDSEC
  0
SECTION
  2
OBJECTS
  0
DICTIONARY
  5
C
100
AcDbDictionary
280
0
281
1
  3
ACAD_GROUP
350
D
  3
ACAD_MLINESTYLE
350
17
  3
ACAD_LAYOUT
350
1A
  3
ACAD_PLOTSETTINGS
350
19
  3
ACAD_PLOTSTYLENAME
350
E
  0
DICTIONARY
  5
D
102
{ACAD_REACTORS
330
C
102
}
100
AcDbDictionary
280
0
281
1
  0
ACDBDICTIONARYWDFLT
  5
E
102
{ACAD_REACTORS
330
C
102
}
100
AcDbDictionary
281
1
  3
Normal
350
F
100
AcDbDictionaryWithDefault
340
F
  0
DICTIONARY
  5
17
102
{ACAD_REACTORS
330
C
102
}
100
AcDbDictionary
280
0
281
1
  3
Standard
350
18
  0
DICTIONARY
  5
19
102
{ACAD_REACTORS
330
C
102
}
100
AcDbDictionary
281
1
  0
DICTIONARY
  5
1A
102
{ACAD_REACTORS
330
C
102
}
100
AcDbDictionary
281
1
  3
Model
350
506
  3
Layout1
350
507
  0
ACDBPLACEHOLDER
  5
F
102
{ACAD_REACTORS
330
E
102
}
  0
MLINESTYLE
  5
18
102
{ACAD_REACTORS
330
17
102
}
100
AcDbMlineStyle
  2
STANDARD
 70
0
  3

 62
256
 51
90.0
 52
90.0
 71
2
 49
0.5
 62
256
  6
BYLAYER
 49
-0.5
 62
256
  6
BYLAYER
  0
LAYOUT
  5
506
102
{ACAD_REACTORS
330
1A
102
}
100
AcDbPlotSettings
  1

  2
none_device
  4
ISO_A3_(420.00_x_297.00_MM)
  6

 40
0.0
 41
0.0
 42
0.0
 43
0.0
 44
420.0
 45
297.0
 46
0.0
 47
0.0
 48
0.0
 49
0.0
140
0.0
141
0.0
142
1.0
143
1.0
 70
1024
 72
1
 73
0
 74
0
  7

 75
0
147
1.0
148
0.0
149
0.0
100
AcDbLayout
  1
Model
 70
0
 71
0
 10
0.0
 20
0.0
 11
420.0
 21
297.0
 12
0.0
 22
0.0
 32
0.0
 14
0.0
 24
0.0
 34
0.0
 15
0.0
 25
0.0
 35
0.0
146
0.0
 13
0.0
 23
0.0
 33
0.0
 16
1.0
 26
0.0
 36
0.0
 17
0.0
 27
1.0
 37
0.0
 76
0
330
219
345
0
346
0
  0
LAYOUT
  5
507
102
{ACAD_REACTORS
330
1A
102
}
100
AcDbPlotSettings
  1

  2
none_device
  4
ISO_A3_(420.00_x_297.00_MM)
  6

 40
0.0
 41
0.0
 42
0.0
 43
0.0
 44
420.0
 45
297.0
 46
0.0
 47
0.0
 48
0.0
 49
0.0
140
0.0
141
0.0
142
1.0
143
1.0
 70
0
 72
1
 73
0
 74
0
  7

 75
0
147
1.0
148
0.0
149
0.0
100
AcDbLayout
  1
Layout1
 70
0
 71
1
 10
0.0
 20
0.0
 11
420.0
 21
297.0
 12
0.0
 22
0.0
 32
0.0
 14
0.0
 24
0.0
 34
0.0
 15
0.0
 25
0.0
 35
0.0
146
0.0
 13
0.0
 23
0.0
 33
0.0
 16
1.0
 26
0.0
 36
0.0
 17
0.0
 27
1.0
 37
0.0
 76
0
330
21A
345
0
346
0
  0
ENDSEC
  0
EOF
